  0
SECTION
  2
HEADER
  9
$ACADVER
  1
AC1009
  9
$INSBASE
 10
0.0
 20
0.0
 30
0.0
  9
$EXTMIN
 10
470.19907035447579
 20
119.4789175761579
 30
-0.0000000000000053
  9
$EXTMAX
 10
505.95666018357468
 20
182.74044299931381
 30
0.0000000000000099
  9
$LIMMIN
 10
0.0
 20
0.0
  9
$LIMMAX
 10
12.0
 20
9.0
  9
$ORTHOMODE
 70
     1
  9
$REGENMODE
 70
     1
  9
$FILLMODE
 70
     1
  9
$QTEXTMODE
 70
     0
  9
$MIRRTEXT
 70
     0
  9
$DRAGMODE
 70
     2
  9
$LTSCALE
 40
1.0
  9
$OSMODE
 70
  3071
  9
$ATTMODE
 70
     1
  9
$TEXTSIZE
 40
0.2
  9
$TRACEWID
 40
0.05
  9
$TEXTSTYLE
  7
STANDARD
  9
$CLAYER
  8
标注
  9
$CELTYPE
  6
BYLAYER
  9
$CECOLOR
 62
   256
  9
$DIMSCALE
 40
1.0
  9
$DIMASZ
 40
0.65
  9
$DIMEXO
 40
0.88
  9
$DIMDLI
 40
0.015
  9
$DIMRND
 40
0.0
  9
$DIMDLE
 40
0.0
  9
$DIMEXE
 40
0.32
  9
$DIMTP
 40
0.0
  9
$DIMTM
 40
0.0
  9
$DIMTXT
 40
0.65
  9
$DIMCEN
 40
0.09
  9
$DIMTSZ
 40
0.0
  9
$DIMTOL
 70
     0
  9
$DIMLIM
 70
     0
  9
$DIMTIH
 70
     0
  9
$DIMTOH
 70
     0
  9
$DIMSE1
 70
     0
  9
$DIMSE2
 70
     0
  9
$DIMTAD
 70
     0
  9
$DIMZIN
 70
     8
  9
$DIMBLK
  1

  9
$DIMASO
 70
     1
  9
$DIMSHO
 70
     1
  9
$DIMPOST
  1
"
  9
$DIMAPOST
  1
"
  9
$DIMALT
 70
     0
  9
$DIMALTD
 70
     1
  9
$DIMALTF
 40
0.03937
  9
$DIMLFAC
 40
1.0
  9
$DIMTOFL
 70
     1
  9
$DIMTVP
 40
0.0
  9
$DIMTIX
 70
     0
  9
$DIMSOXD
 70
     0
  9
$DIMSAH
 70
     0
  9
$DIMBLK1
  1

  9
$DIMBLK2
  1

  9
$DIMSTYLE
  2
副本STANDARD
  9
$DIMCLRD
 70
   256
  9
$DIMCLRE
 70
   256
  9
$DIMCLRT
 70
   256
  9
$DIMTFAC
 40
1.0
  9
$DIMGAP
 40
0.2
  9
$LUNITS
 70
     2
  9
$LUPREC
 70
     4
  9
$SKETCHINC
 40
0.1
  9
$FILLETRAD
 40
0.0
  9
$AUNITS
 70
     0
  9
$AUPREC
 70
     0
  9
$MENU
  1
.
  9
$ELEVATION
 40
0.0
  9
$PELEVATION
 40
0.0
  9
$THICKNESS
 40
0.0
  9
$LIMCHECK
 70
     0
  9
$BLIPMODE
 70
     0
  9
$CHAMFERA
 40
0.0
  9
$CHAMFERB
 40
0.0
  9
$SKPOLY
 70
     0
  9
$TDCREATE
 40
2455434.724808658
  9
$TDUPDATE
 40
2457410.4047329859
  9
$TDINDWG
 40
0.2914840509
  9
$TDUSRTIMER
 40
0.291463669
  9
$USRTIMER
 70
     1
  9
$ANGBASE
 50
0.0
  9
$ANGDIR
 70
     0
  9
$PDMODE
 70
     0
  9
$PDSIZE
 40
0.0
  9
$PLINEWID
 40
0.0
  9
$COORDS
 70
     0
  9
$SPLFRAME
 70
     0
  9
$SPLINETYPE
 70
     6
  9
$SPLINESEGS
 70
     8
  9
$ATTDIA
 70
     1
  9
$ATTREQ
 70
     1
  9
$HANDLING
 70
     1
  9
$HANDSEED
  5
25E9
  9
$SURFTAB1
 70
     6
  9
$SURFTAB2
 70
     6
  9
$SURFTYPE
 70
     6
  9
$SURFU
 70
     6
  9
$SURFV
 70
     6
  9
$UCSNAME
  2

  9
$UCSORG
 10
0.0
 20
0.0
 30
0.0
  9
$UCSXDIR
 10
1.0
 20
0.0
 30
0.0
  9
$UCSYDIR
 10
0.0
 20
1.0
 30
0.0
  9
$PUCSNAME
  2

  9
$PUCSORG
 10
0.0
 20
0.0
 30
0.0
  9
$PUCSXDIR
 10
1.0
 20
0.0
 30
0.0
  9
$PUCSYDIR
 10
0.0
 20
1.0
 30
0.0
  9
$USERI1
 70
     0
  9
$USERI2
 70
     0
  9
$USERI3
 70
     0
  9
$USERI4
 70
     0
  9
$USERI5
 70
     0
  9
$USERR1
 40
0.0
  9
$USERR2
 40
0.0
  9
$USERR3
 40
0.0
  9
$USERR4
 40
0.0
  9
$USERR5
 40
2.5
  9
$WORLDVIEW
 70
     1
  9
$SHADEDGE
 70
     3
  9
$SHADEDIF
 70
    70
  9
$TILEMODE
 70
     1
  9
$MAXACTVP
 70
    64
  9
$PLIMCHECK
 70
     0
  9
$PEXTMIN
 10
1.0000000000000000E+020
 20
1.0000000000000000E+020
 30
1.0000000000000000E+020
  9
$PEXTMAX
 10
-1.0000000000000000E+020
 20
-1.0000000000000000E+020
 30
-1.0000000000000000E+020
  9
$PLIMMIN
 10
0.0
 20
0.0
  9
$PLIMMAX
 10
12.0
 20
9.0
  9
$UNITMODE
 70
     0
  9
$VISRETAIN
 70
     1
  9
$PLINEGEN
 70
     0
  9
$PSLTSCALE
 70
     1
  0
ENDSEC
  0
SECTION
  2
TABLES
  0
TABLE
  2
VPORT
 70
     1
  0
VPORT
  2
*ACTIVE
 70
     0
 10
0.0
 20
0.0
 11
1.0
 21
1.0
 12
482.8539773172792
 22
154.5512697454829
 13
0.0
 23
0.0
 14
0.5
 24
0.5
 15
0.5
 25
0.5
 16
0.0
 26
0.0
 36
1.0
 17
0.0
 27
0.0
 37
0.0
 40
119.87787225736351
 41
1.4909326424870459
 42
50.0
 43
0.0
 44
0.0
 50
0.0
 51
0.0
 71
     0
 72
  1000
 73
     1
 74
     3
 75
     0
 76
     0
 77
     0
 78
     0
  0
ENDTAB
  0
TABLE
  2
LTYPE
 70
    19
  0
LTYPE
  2
CONTINUOUS
 70
     0
  3
Solid line
 72
    65
 73
     0
 40
0.0
  0
LTYPE
  2
CENTER2
 70
     0
  3
Center (.5x) ___ _ ___ _ ___ _ ___ _ ___ _ ___
 72
    65
 73
     4
 40
28.574999999999999
 49
19.050000000000001
 49
-3.174999999999998
 49
3.174999999999998
 49
-3.174999999999998
  0
LTYPE
  2
HIDDEN2
 70
     0
  3
Hidden (.5x) _ _ _ _ _ _ _ _ _ _ _ _ _ _ _ _ _
 72
    65
 73
     2
 40
4.7624999999999984
 49
3.174999999999998
 49
-1.587499999999999
  0
LTYPE
  2
HIDDEN
 70
     0
  3
Hidden __ __ __ __ __ __ __ __ __ __ __ __ __ _
 72
    65
 73
     2
 40
0.375
 49
0.25
 49
-0.125
  0
LTYPE
  2
PHANTOM2
 70
     0
  3
Phantom (.5x) ___ _ _ ___ _ _ ___ _ _ ___ _ _
 72
    65
 73
     6
 40
1.25
 49
0.625
 49
-0.125
 49
0.125
 49
-0.125
 49
0.125
 49
-0.125
  0
LTYPE
  2
CENTER
 70
     0
  3
Center ____ _ ____ _ ____ _ ____ _ ____ _ ____
 72
    65
 73
     4
 40
2.0
 49
1.25
 49
-0.25
 49
0.25
 49
-0.25
  0
LTYPE
  2
AM_ISO02W050
 70
     0
  3
__ __ __ __ __ __ __ __ __ __ __ __ __ __ __
 72
    65
 73
     2
 40
7.5
 49
6.0
 49
-1.5
  0
LTYPE
  2
AM_ISO08W050
 70
     0
  3
____ . ____ . ____ . ____ . ____ . ____ . ____
 72
    65
 73
     4
 40
18.0
 49
12.0
 49
-1.5
 49
3.0
 49
-1.5
  0
LTYPE
  2
AM_ISO09W050
 70
     0
  3
_____ . . _____ . . _____ . . ____ .. ____
 72
    65
 73
     6
 40
22.5
 49
12.0
 49
-1.5
 49
3.0
 49
-1.5
 49
3.0
 49
-1.5
  0
LTYPE
  2
AMCONSTR
 70
     0
  3
_______________________
 72
    65
 73
     2
 40
9999.0
 49
9999.0
 49
0.0
  0
LTYPE
  2
AM_ISO08W050X2
 70
     0
  3
__ . __ . __ . __ . __ . __
 72
    65
 73
     4
 40
9.0
 49
6.0
 49
-0.75
 49
1.5
 49
-0.75
  0
LTYPE
  2
AM_ISO02W050X2
 70
     0
  3
 _ _ _ _ _ _ _ _ _ _ _ _
 72
    65
 73
     2
 40
3.75
 49
3.0
 49
-0.75
  0
LTYPE
  2
AMZIGZAG
 70
     0
  3
/\/-/\/-/\/-/\/-/\/-/\/
 72
    65
 73
     2
 40
11.0001
 49
0.0001
 49
-11.0
  0
LTYPE
  2
AMZIGZAG2
 70
     0
  3
/\/-/\/-/\/-/\/-/\/-/\/
 72
    65
 73
     2
 40
0.4401
 49
0.0001
 49
-0.4400000000000003
  0
LTYPE
  2
ACANSTGB
 70
     0
  3
__ . . __ . .
 72
    65
 73
     6
 40
0.35433070866
 49
0.15748031496
 49
-0.03937007874
 49
0.03937007874
 49
-0.03937007874
 49
0.03937007874
 49
-0.03937007874
  0
LTYPE
  2
ACANSTGL
 70
     0
  3
_ _ _ _ _
 72
    65
 73
     2
 40
0.11811023622
 49
0.07874015748
 49
-0.03937007874
  0
LTYPE
  2
ACISOWELD
 70
     0
  3
_ _ _ _ _
 72
    65
 73
     2
 40
2.0
 49
2.0
 49
-1.0
  0
LTYPE
  2
ACISOTGB
 70
     0
  3
__ . . __ . .
 72
    65
 73
     6
 40
9.0
 49
4.0
 49
-1.0
 49
1.0
 49
-1.0
 49
1.0
 49
-1.0
  0
LTYPE
  2
ACISOTGL
 70
     0
  3
_ _ _ _ _
 72
    65
 73
     2
 40
3.0
 49
2.0
 49
-1.0
  0
ENDTAB
  0
TABLE
  2
LAYER
 70
     8
  0
LAYER
  2
0
 70
     0
 62
     7
  6
CONTINUOUS
  0
LAYER
  2
标注
 70
     0
 62
    80
  6
CONTINUOUS
  0
LAYER
  2
中心线
 70
     0
 62
     1
  6
CENTER2
  0
LAYER
  2
虚线
 70
     0
 62
     4
  6
HIDDEN2
  0
LAYER
  2
DEFPOINTS
 70
     0
 62
     7
  6
CONTINUOUS
  0
LAYER
  2
细实线
 70
     0
 62
     7
  6
CONTINUOUS
  0
LAYER
  2
标注线
 70
     0
 62
     3
  6
CONTINUOUS
  0
LAYER
  2
截面层
 70
     0
 62
     6
  6
CONTINUOUS
  0
ENDTAB
  0
TABLE
  2
STYLE
 70
     8
  0
STYLE
  2
STANDARD
 70
     0
 40
0.0
 41
1.0
 50
0.0
 71
     0
 42
0.2
  3
txt
  4

  0
STYLE
  2
ANNOTATIVE
 70
     0
 40
0.0
 41
1.0
 50
0.0
 71
     0
 42
0.2
  3
txt
  4

  0
STYLE
  2

 70
     1
 40
0.0
 41
1.0
 50
0.0
 71
     0
 42
0.2
  3
genltshp.shx
  4

  0
STYLE
  2
ACANSGDT
 70
     0
 40
0.0
 41
1.0
 50
0.0
 71
     0
 42
0.2
  3
amgdt.shx
  4

  0
STYLE
  2
ACISOGDT
 70
     0
 40
0.0
 41
1.0
 50
0.0
 71
     0
 42
2.5
  3
amgdt.shx
  4

  0
STYLE
  2
ACANSTS
 70
     0
 40
1.0
 41
1.0
 50
0.0
 71
     0
 42
0.2
  3
romans.shx
  4
gbcbig.shx
  0
STYLE
  2
A35
 70
     0
 40
17.5
 41
1.0
 50
0.0
 71
     0
 42
17.5
  3
txt.shx
  4

  0
ENDTAB
  0
TABLE
  2
VIEW
 70
     0
  0
ENDTAB
  0
TABLE
  2
UCS
 70
     0
  0
ENDTAB
  0
TABLE
  2
APPID
 70
    25
  0
APPID
  2
ACAD
 70
     0
  0
APPID
  2
ACADANNOTATIVE
 70
     0
  0
APPID
  2
ACAECLAYERSTANDARD
 70
     0
  0
APPID
  2
ACAD_DSTYLE_DIMEXT_LENGTH
 70
     0
  0
APPID
  2
ACAD_DSTYLE_DIMEXT_ENABLED
 70
     0
  0
APPID
  2
ACAD_DSTYLE_DIMJOGGED_JOGA
 70
     0
  0
APPID
  2
ACAD_DSTYLE_DIMARC_LENGTH_
 70
     0
  0
APPID
  2
ACAD_PSEXT
 70
     0
  0
APPID
  2
MCAD_NO_VIS
 70
     0
  0
APPID
  2
ACAD_TEMP_GRAPHIC
 70
     0
  0
APPID
  2
AD_DRAW
 70
     0
  0
APPID
  2
ACATTRIBSERVICES
 70
     0
  0
APPID
  2
DESIGNERASSEMBLIES
 70
     0
  0
APPID
  2
ACADM_DIM_EDIT
 70
     0
  0
APPID
  2
AMDT_DM_ADJ
 70
     0
  0
APPID
  2
ACAD_DSTYLE_DIMJAG
 70
     0
  0
APPID
  2
ACAD_DSTYLE_DIMBREAK
 70
     0
  0
APPID
  2
ACAD_DSTYLE_DIMTALN
 70
     0
  0
APPID
  2
GENIUS_GENODEF_13
 70
     0
  0
APPID
  2
GENIUS_GENOBJ-N-FIL_13
 70
     0
  0
APPID
  2
ACAD_EXEMPT_FROM_CAD_STANDARDS
 70
     0
  0
APPID
  2
ACAD_MLEADERVER
 70
     0
  0
APPID
  2
ACAD_DSTYLE_DIM_LINETYPE
 70
     0
  0
APPID
  2
ACAD_DSTYLE_DIM_EXT1_LINETYPE
 70
     0
  0
APPID
  2
ACAD_DSTYLE_DIM_EXT2_LINETYPE
 70
     0
  0
ENDTAB
  0
TABLE
  2
DIMSTYLE
 70
    23
  0
DIMSTYLE
  2
STANDARD
 70
     0
  3

  4

  5

  6

  7

 40
1.0
 41
0.18
 42
0.0625
 43
0.38
 44
0.18
 45
0.0
 46
0.0
 47
0.0
 48
0.0
140
0.18
141
0.09
142
0.0
143
25.399999999999999
144
1.0
145
0.0
146
1.0
147
0.09
 71
     0
 72
     0
 73
     1
 74
     1
 75
     0
 76
     0
 77
     0
 78
     0
170
     0
171
     2
172
     0
173
     0
174
     0
175
     0
176
     0
177
     0
178
     0
  0
DIMSTYLE
  2
ANNOTATIVE
 70
     0
  3

  4

  5

  6

  7

 40
1.0
 41
0.18
 42
0.0625
 43
0.38
 44
0.18
 45
0.0
 46
0.0
 47
0.0
 48
0.0
140
0.18
141
0.09
142
0.0
143
25.399999999999999
144
1.0
145
0.0
146
1.0
147
0.09
 71
     0
 72
     0
 73
     1
 74
     1
 75
     0
 76
     0
 77
     0
 78
     0
170
     0
171
     2
172
     0
173
     0
174
     0
175
     0
176
     0
177
     0
178
     0
  0
DIMSTYLE
  2
副本STANDARD
 70
     0
  3
"
  4
"
  5

  6

  7

 40
1.0
 41
0.65
 42
0.88
 43
0.015
 44
0.32
 45
0.0
 46
0.0
 47
0.0
 48
0.0
140
0.65
141
0.09
142
0.0
143
0.03937
144
1.0
145
0.0
146
1.0
147
0.2
 71
     0
 72
     0
 73
     0
 74
     0
 75
     0
 76
     0
 77
     0
 78
     8
170
     0
171
     1
172
     1
173
     0
174
     0
175
     0
176
   256
177
   256
178
   256
  0
DIMSTYLE
  2
AM_ANSI
 70
     0
  3

  4
mm
  5

  6

  7

 40
1.0
 41
0.12
 42
0.05
 43
0.5
 44
0.1
 45
0.0
 46
0.0
 47
0.1
 48
0.1
140
0.12
141
0.0
142
0.0
143
25.399999999999999
144
1.0
145
0.0
146
0.71
147
0.06
 71
     0
 72
     0
 73
     1
 74
     1
 75
     0
 76
     0
 77
     0
 78
     7
170
     0
171
     2
172
     0
173
     0
174
     0
175
     0
176
   256
177
   256
178
     2
  0
DIMSTYLE
  2
AM_ANSI$3
 70
     0
  3

  4
mm
  5

  6

  7

 40
1.0
 41
0.12
 42
0.05
 43
0.5
 44
0.1
 45
0.0
 46
0.0
 47
0.1
 48
0.1
140
0.12
141
0.0
142
0.0
143
25.399999999999999
144
1.0
145
0.0
146
0.71
147
0.06
 71
     0
 72
     0
 73
     1
 74
     1
 75
     0
 76
     0
 77
     0
 78
     7
170
     0
171
     2
172
     0
173
     0
174
     0
175
     0
176
   256
177
   256
178
     2
  0
DIMSTYLE
  2
AM_ANSI$4
 70
     0
  3

  4
mm
  5

  6

  7

 40
1.0
 41
0.12
 42
0.05
 43
0.5
 44
0.1
 45
0.0
 46
0.0
 47
0.1
 48
0.1
140
0.12
141
0.0
142
0.0
143
25.399999999999999
144
1.0
145
0.0
146
0.71
147
0.06
 71
     0
 72
     0
 73
     1
 74
     1
 75
     0
 76
     0
 77
     0
 78
     7
170
     0
171
     2
172
     0
173
     0
174
     0
175
     0
176
   256
177
   256
178
     2
  0
DIMSTYLE
  2
AM_ANSI$7
 70
     0
  3

  4
mm
  5

  6

  7

 40
1.0
 41
0.12
 42
0.05
 43
0.5
 44
0.1
 45
0.0
 46
0.0
 47
0.1
 48
0.1
140
0.12
141
0.0
142
0.0
143
25.399999999999999
144
1.0
145
0.0
146
0.71
147
0.06
 71
     0
 72
     0
 73
     1
 74
     1
 75
     0
 76
     0
 77
     0
 78
     7
170
     0
171
     2
172
     0
173
     0
174
     0
175
     0
176
   256
177
   256
178
     2
  0
DIMSTYLE
  2
AM_ANSI$SF
 70
     0
  3

  4
mm
  5

  6

  7

 40
1.0
 41
0.12
 42
0.05
 43
0.5
 44
0.1
 45
0.0
 46
0.0
 47
0.1
 48
0.1
140
0.12
141
0.0
142
0.0
143
25.399999999999999
144
1.0
145
0.0
146
0.71
147
0.06
 71
     0
 72
     0
 73
     1
 74
     1
 75
     1
 76
     1
 77
     0
 78
     7
170
     0
171
     2
172
     0
173
     0
174
     0
175
     0
176
   256
177
   256
178
     2
  0
DIMSTYLE
  2
AM_ANSI$SH
 70
     0
  3

  4
mm
  5

  6

  7

 40
1.0
 41
0.12
 42
0.05
 43
0.5
 44
0.1
 45
0.0
 46
0.0
 47
0.1
 48
0.1
140
0.12
141
0.0
142
0.0
143
25.399999999999999
144
1.0
145
0.0
146
0.71
147
0.06
 71
     0
 72
     0
 73
     1
 74
     1
 75
     1
 76
     1
 77
     0
 78
     7
170
     0
171
     2
172
     0
173
     1
174
     0
175
     0
176
   256
177
   256
178
     2
  0
DIMSTYLE
  2
AM_ISO
 70
     0
  3

  4
"
  5

  6

  7

 40
1.0
 41
3.5
 42
1.0
 43
10.0
 44
1.0
 45
0.0
 46
0.0
 47
0.1
 48
0.1
140
3.5
141
0.0
142
0.0
143
0.0393701
144
1.0
145
0.0
146
0.71
147
1.5
 71
     0
 72
     0
 73
     0
 74
     0
 75
     0
 76
     0
 77
     1
 78
     8
170
     0
171
     2
172
     1
173
     0
174
     0
175
     0
176
   256
177
   256
178
     2
  0
DIMSTYLE
  2
AM_ISO$3
 70
     0
  3

  4
"
  5

  6

  7

 40
1.0
 41
3.5
 42
1.0
 43
10.0
 44
1.0
 45
0.0
 46
0.0
 47
0.1
 48
0.1
140
3.5
141
0.0
142
0.0
143
0.0393701
144
1.0
145
0.0
146
0.71
147
1.5
 71
     0
 72
     0
 73
     0
 74
     1
 75
     0
 76
     0
 77
     1
 78
     8
170
     0
171
     2
172
     0
173
     0
174
     0
175
     0
176
   256
177
   256
178
     2
  0
DIMSTYLE
  2
AM_ISO$4
 70
     0
  3

  4
"
  5

  6

  7

 40
1.0
 41
3.5
 42
1.0
 43
10.0
 44
1.0
 45
0.0
 46
0.0
 47
0.1
 48
0.1
140
3.5
141
0.0
142
0.0
143
0.0393701
144
1.0
145
0.0
146
0.71
147
1.5
 71
     0
 72
     0
 73
     0
 74
     1
 75
     0
 76
     0
 77
     1
 78
     8
170
     0
171
     2
172
     0
173
     0
174
     0
175
     0
176
   256
177
   256
178
     2
  0
DIMSTYLE
  2
AM_ISO$6
 70
     0
  3

  4
"
  5

  6

  7

 40
1.0
 41
3.5
 42
1.0
 43
10.0
 44
1.0
 45
0.0
 46
0.0
 47
0.1
 48
0.1
140
3.5
141
0.0
142
0.0
143
0.0393701
144
1.0
145
0.0
146
0.71
147
1.5
 71
     0
 72
     0
 73
     0
 74
     0
 75
     0
 76
     0
 77
     0
 78
     8
170
     0
171
     2
172
     1
173
     0
174
     0
175
     0
176
   256
177
   256
178
     2
  0
DIMSTYLE
  2
AM_ISO$7
 70
     0
  3

  4
"
  5

  6

  7

 40
1.0
 41
3.5
 42
1.0
 43
10.0
 44
1.0
 45
0.0
 46
0.0
 47
0.1
 48
0.1
140
3.5
141
0.0
142
0.0
143
0.0393701
144
1.0
145
0.0
146
0.71
147
1.5
 71
     0
 72
     0
 73
     0
 74
     0
 75
     0
 76
     0
 77
     1
 78
     8
170
     0
171
     2
172
     1
173
     0
174
     0
175
     0
176
   256
177
   256
178
     2
  0
DIMSTYLE
  2
AM_ISO$SF
 70
     0
  3

  4
"
  5

  6

  7

 40
1.0
 41
3.5
 42
1.0
 43
10.0
 44
1.0
 45
0.0
 46
0.0
 47
0.1
 48
0.1
140
3.5
141
0.0
142
0.0
143
0.0393701
144
1.0
145
0.0
146
0.71
147
1.5
 71
     0
 72
     0
 73
     0
 74
     0
 75
     1
 76
     1
 77
     1
 78
     8
170
     0
171
     2
172
     1
173
     0
174
     0
175
     0
176
   256
177
   256
178
     2
  0
DIMSTYLE
  2
AM_ISO$SH
 70
     0
  3

  4
"
  5

  6

  7

 40
1.0
 41
3.5
 42
1.0
 43
10.0
 44
1.0
 45
0.0
 46
0.0
 47
0.1
 48
0.1
140
3.5
141
0.0
142
0.0
143
0.0393701
144
2.0
145
0.0
146
0.71
147
1.5
 71
     0
 72
     0
 73
     0
 74
     0
 75
     1
 76
     1
 77
     1
 78
     8
170
     0
171
     2
172
     1
173
     1
174
     0
175
     0
176
   256
177
   256
178
     2
  0
DIMSTYLE
  2
090319-
 70
     0
  3

  4

  5

  6

  7

 40
1.0
 41
16.0
 42
20.0
 43
1.5
 44
3.0
 45
0.0
 46
0.0
 47
0.0
 48
0.0
140
20.0
141
3.0
142
0.0
143
0.03937007874016
144
1.0
145
0.0
146
1.0
147
7.0
 71
     0
 72
     0
 73
     0
 74
     0
 75
     0
 76
     0
 77
     1
 78
     8
170
     0
171
     3
172
     1
173
     0
174
     0
175
     0
176
     0
177
     0
178
     0
  0
DIMSTYLE
  2
A35
 70
     0
  3

  4

  5

  6

  7

 40
0.0
 41
17.5
 42
9.0
 43
1.0
 44
9.0
 45
0.0
 46
0.0
 47
0.0
 48
0.0
140
17.5
141
0.0
142
0.0
143
25.399999999999999
144
1.0
145
0.0
146
1.0
147
9.0
 71
     0
 72
     0
 73
     0
 74
     0
 75
     0
 76
     0
 77
     1
 78
    12
170
     0
171
     2
172
     1
173
     0
174
     0
175
     0
176
   256
177
   256
178
   256
  0
DIMSTYLE
  2
副本__2_STANDARD
 70
     0
  3

  4
"
  5

  6

  7

 40
1.0
 41
16.0
 42
22.0
 43
0.38
 44
8.0
 45
0.0
 46
0.0
 47
0.0
 48
0.0
140
16.0
141
0.09
142
0.0
143
0.03937
144
1.0
145
0.0
146
1.0
147
5.0
 71
     0
 72
     0
 73
     0
 74
     0
 75
     0
 76
     0
 77
     0
 78
     8
170
     1
171
     1
172
     1
173
     0
174
     0
175
     0
176
     3
177
     3
178
     3
  0
DIMSTYLE
  2
副本__3_STANDARD
 70
     0
  3

  4
"
  5

  6

  7

 40
1.0
 41
16.0
 42
22.0
 43
0.38
 44
8.0
 45
0.0
 46
0.0
 47
0.0
 48
0.0
140
16.0
141
0.0
142
0.0
143
0.03937
144
1.0
145
0.0
146
1.0
147
5.0
 71
     0
 72
     0
 73
     0
 74
     0
 75
     0
 76
     0
 77
     0
 78
     8
170
     0
171
     3
172
     1
173
     0
174
     0
175
     1
176
     3
177
     3
178
     3
  0
DIMSTYLE
  2
中10_
 70
     0
  3

  4
"
  5

  6

  7

 40
1.0
 41
12.0
 42
10.0
 43
1.0
 44
2.0
 45
0.0
 46
0.0
 47
0.0
 48
0.0
140
12.0
141
1.5
142
0.0
143
0.03937007874016
144
1.0
145
0.0
146
1.0
147
4.0
 71
     0
 72
     0
 73
     0
 74
     0
 75
     0
 76
     0
 77
     0
 78
     8
170
     0
171
     3
172
     1
173
     0
174
     0
175
     0
176
     0
177
     0
178
     0
  0
DIMSTYLE
  2
中10_0
 70
     0
  3

  4
"
  5

  6

  7

 40
1.0
 41
12.0
 42
10.0
 43
1.0
 44
2.0
 45
0.0
 46
0.0
 47
0.0
 48
0.0
140
12.0
141
1.5
142
0.0
143
0.03937007874016
144
1.0
145
0.0
146
1.0
147
4.0
 71
     0
 72
     0
 73
     0
 74
     0
 75
     0
 76
     0
 77
     0
 78
     8
170
     0
171
     3
172
     1
173
     0
174
     0
175
     0
176
     0
177
     0
178
     0
  0
ENDTAB
  0
ENDSEC
  0
SECTION
  2
BLOCKS
  0
BLOCK
  8
0
  2
$MODEL_SPACE
 70
     0
 10
0.0
 20
0.0
 30
0.0
  3
$MODEL_SPACE
  1

  0
ENDBLK
  5
21FD
  8
0
  0
BLOCK
 67
     1
  8
0
  2
$PAPER_SPACE
 70
     0
 10
0.0
 20
0.0
 30
0.0
  3
$PAPER_SPACE
  1

  0
ENDBLK
  5
21F9
 67
     1
  8
0
  0
BLOCK
  8
0
  2
GENAXEH
 70
     0
 10
0.0
 20
0.0
 30
0.0
  3
GENAXEH
  1

  0
LINE
  5
1722
  8
0
 10
-1.0
 20
0.0
 30
0.0
 11
1.0
 21
0.0
 31
0.0
  0
ENDBLK
  5
1724
  8
0
  0
BLOCK
  8
0
  2
*D3
 70
     1
 10
0.0
 20
0.0
 30
0.0
  3
*D3
  1

  0
LINE
  5
18EA
  8
标注
 10
276.58135583593452
 20
193.6364489045088
 30
0.0
 11
278.10357533348002
 21
193.6364489045088
 31
0.0
  0
LINE
  5
18EB
  8
标注
 10
276.53473933445309
 20
184.6364489045489
 30
0.0
 11
278.10357533348002
 21
184.6364489045489
 31
0.0
  0
LINE
  5
18EC
  8
标注
 10
277.78357533347997
 20
192.9864489045089
 30
0.0
 11
277.78357533347997
 21
189.7697822378621
 31
0.0
  0
LINE
  5
18ED
  8
标注
 10
277.78357533347997
 20
185.28644890454891
 30
0.0
 11
277.78357533347997
 21
188.50311557119559
 31
0.0
  0
SOLID
  5
18EE
  8
标注
 10
277.67524200014662
 20
192.9864489045089
 30
0.0
 11
277.89190866681332
 21
192.9864489045089
 31
0.0
 12
277.78357533347997
 22
193.6364489045088
 32
0.0
 13
277.78357533347997
 23
193.6364489045088
 33
0.0
  0
SOLID
  5
18EF
  8
标注
 10
277.67524200014662
 20
185.28644890454891
 30
0.0
 11
277.89190866681332
 21
185.28644890454891
 31
0.0
 12
277.78357533347997
 22
184.6364489045489
 32
0.0
 13
277.78357533347997
 23
184.6364489045489
 33
0.0
  0
INSERT
  5
18F0
  8
标注
  2
*U4
 10
0.0
 20
0.0
 30
0.0
  0
POINT
  5
18F1
  8
DEFPOINTS
 62
     0
 10
275.70135583593452
 20
193.6364489045088
 30
0.0
  0
POINT
  5
18F2
  8
DEFPOINTS
 62
     0
 10
275.6547393344531
 20
184.6364489045489
 30
0.0
  0
POINT
  5
18F3
  8
DEFPOINTS
 62
     0
 10
277.78357533347997
 20
184.6364489045489
 30
0.0
  0
ENDBLK
  5
18B3
  8
0
  0
BLOCK
  8
0
  2
*U4
 70
     1
 10
0.0
 20
0.0
 30
0.0
  3
*U4
  1

  0
TEXT
  5
1D33
  8
标注
 10
278.10857533347991
 20
188.7031155711957
 30
0.0
 40
0.65
  1
9"
 50
90.0
  0
ENDBLK
  5
1D35
  8
0
  0
BLOCK
  8
0
  2
*D5
 70
     1
 10
0.0
 20
0.0
 30
0.0
  3
*D5
  1

  0
LINE
  5
1903
  8
标注
 10
246.74859993053769
 20
154.96163985154161
 30
0.0
 11
246.74859993053769
 21
152.32169580177569
 31
0.0
  0
LINE
  5
1904
  8
标注
 10
274.7013558359381
 20
154.91439575705471
 30
0.0
 11
274.7013558359381
 21
152.32169580177569
 31
0.0
  0
LINE
  5
1905
  8
标注
 10
247.39859993053761
 20
152.64169580177571
 30
0.0
 11
259.76664454990458
 21
152.64169580177571
 31
0.0
  0
LINE
  5
1906
  8
标注
 10
274.05135583593812
 20
152.64169580177571
 30
0.0
 11
261.68331121657121
 21
152.64169580177571
 31
0.0
  0
SOLID
  5
1907
  8
标注
 10
247.39859993053761
 20
152.75002913510909
 30
0.0
 11
247.39859993053761
 21
152.53336246844239
 31
0.0
 12
246.74859993053769
 22
152.64169580177571
 32
0.0
 13
246.74859993053769
 23
152.64169580177571
 33
0.0
  0
SOLID
  5
1908
  8
标注
 10
274.05135583593812
 20
152.75002913510909
 30
0.0
 11
274.05135583593812
 21
152.53336246844239
 31
0.0
 12
274.7013558359381
 22
152.64169580177571
 32
0.0
 13
274.7013558359381
 23
152.64169580177571
 33
0.0
  0
INSERT
  5
1909
  8
标注
  2
*U6
 10
0.0
 20
0.0
 30
0.0
  0
POINT
  5
190A
  8
DEFPOINTS
 62
     0
 10
246.74859993053769
 20
155.8416398515416
 30
0.0
  0
POINT
  5
190B
  8
DEFPOINTS
 62
     0
 10
274.7013558359381
 20
155.7943957570547
 30
0.0
  0
POINT
  5
190C
  8
DEFPOINTS
 62
     0
 10
274.7013558359381
 20
152.64169580177571
 30
0.0
  0
ENDBLK
  5
18F7
  8
0
  0
BLOCK
  8
0
  2
*U6
 70
     1
 10
0.0
 20
0.0
 30
0.0
  3
*U6
  1

  0
TEXT
  5
1D37
  8
标注
 10
259.96664454990457
 20
152.31669580177561
 30
0.0
 40
0.65
  1
28"
  0
ENDBLK
  5
1D39
  8
0
  0
BLOCK
  8
0
  2
*D7
 70
     1
 10
0.0
 20
0.0
 30
0.0
  3
*D7
  1

  0
LINE
  5
191D
  8
标注
 10
245.70135583605449
 20
153.9143957570584
 30
0.0
 11
245.70135583605449
 21
150.49049216546501
 31
0.0
  0
LINE
  5
191E
  8
标注
 10
275.70135583593452
 20
153.9143957570584
 30
0.0
 11
275.70135583593452
 21
150.49049216546501
 31
0.0
  0
LINE
  5
191F
  8
标注
 10
246.35135583605449
 20
150.81049216546481
 30
0.0
 11
259.79718916932791
 21
150.81049216546481
 31
0.0
  0
LINE
  5
1920
  8
标注
 10
275.05135583593449
 20
150.81049216546481
 30
0.0
 11
261.60552250266107
 21
150.81049216546481
 31
0.0
  0
SOLID
  5
1921
  8
标注
 10
246.35135583605449
 20
150.9188254987983
 30
0.0
 11
246.35135583605449
 21
150.70215883213169
 31
0.0
 12
245.70135583605449
 22
150.81049216546481
 32
0.0
 13
245.70135583605449
 23
150.81049216546481
 33
0.0
  0
SOLID
  5
1922
  8
标注
 10
275.05135583593449
 20
150.9188254987983
 30
0.0
 11
275.05135583593449
 21
150.70215883213169
 31
0.0
 12
275.70135583593452
 22
150.81049216546481
 32
0.0
 13
275.70135583593452
 23
150.81049216546481
 33
0.0
  0
INSERT
  5
1923
  8
标注
  2
*U8
 10
0.0
 20
0.0
 30
0.0
  0
POINT
  5
1924
  8
DEFPOINTS
 62
     0
 10
245.70135583605449
 20
154.7943957570584
 30
0.0
  0
POINT
  5
1925
  8
DEFPOINTS
 62
     0
 10
275.70135583593452
 20
154.7943957570584
 30
0.0
  0
POINT
  5
1926
  8
DEFPOINTS
 62
     0
 10
275.70135583593452
 20
150.81049216546481
 30
0.0
  0
ENDBLK
  5
1911
  8
0
  0
BLOCK
  8
0
  2
*U8
 70
     1
 10
0.0
 20
0.0
 30
0.0
  3
*U8
  1

  0
TEXT
  5
1D3B
  8
标注
 10
259.99718916932773
 20
150.4854921654649
 30
0.0
 40
0.65
  1
30"
  0
ENDBLK
  5
1D3D
  8
0
  0
BLOCK
  8
0
  2
*D9
 70
     1
 10
0.0
 20
0.0
 30
0.0
  3
*D9
  1

  0
LINE
  5
1937
  8
标注
 10
275.5813558359381
 20
155.7943957570547
 30
0.0
 11
277.96365574636133
 21
155.7943957570547
 31
0.0
  0
LINE
  5
1938
  8
标注
 10
275.5813558359381
 20
171.79439575699291
 30
0.0
 11
277.96365574636133
 21
171.79439575699291
 31
0.0
  0
LINE
  5
1939
  8
标注
 10
277.64365574636128
 20
156.44439575705471
 30
0.0
 11
277.64365574636128
 21
162.94439575702381
 31
0.0
  0
LINE
  5
193A
  8
标注
 10
277.64365574636128
 20
171.14439575699279
 30
0.0
 11
277.64365574636128
 21
164.6443957570238
 31
0.0
  0
SOLID
  5
193B
  8
标注
 10
277.53532241302798
 20
156.44439575705471
 30
0.0
 11
277.75198907969468
 21
156.44439575705471
 31
0.0
 12
277.64365574636128
 22
155.7943957570547
 32
0.0
 13
277.64365574636128
 23
155.7943957570547
 33
0.0
  0
SOLID
  5
193C
  8
标注
 10
277.53532241302798
 20
171.14439575699279
 30
0.0
 11
277.75198907969468
 21
171.14439575699279
 31
0.0
 12
277.64365574636128
 22
171.79439575699291
 32
0.0
 13
277.64365574636128
 23
171.79439575699291
 33
0.0
  0
INSERT
  5
193D
  8
标注
  2
*U10
 10
0.0
 20
0.0
 30
0.0
  0
POINT
  5
193E
  8
DEFPOINTS
 62
     0
 10
274.7013558359381
 20
155.7943957570547
 30
0.0
  0
POINT
  5
193F
  8
DEFPOINTS
 62
     0
 10
274.7013558359381
 20
171.79439575699291
 30
0.0
  0
POINT
  5
1940
  8
DEFPOINTS
 62
     0
 10
277.64365574636128
 20
171.79439575699291
 30
0.0
  0
ENDBLK
  5
192B
  8
0
  0
BLOCK
  8
0
  2
*U10
 70
     1
 10
0.0
 20
0.0
 30
0.0
  3
*U10
  1

  0
TEXT
  5
1D3F
  8
标注
 10
277.96865574636121
 20
163.1443957570238
 30
0.0
 40
0.65
  1
16"
 50
90.0
  0
ENDBLK
  5
1D41
  8
0
  0
BLOCK
  8
0
  2
*D11
 70
     1
 10
0.0
 20
0.0
 30
0.0
  3
*D11
  1

  0
LINE
  5
1951
  8
标注
 10
276.58135583593452
 20
154.7943957570584
 30
0.0
 11
279.70185460453013
 21
154.7943957570584
 31
0.0
  0
LINE
  5
1952
  8
标注
 10
276.58135583593452
 20
172.79439575698561
 30
0.0
 11
279.70185460453013
 21
172.79439575698561
 31
0.0
  0
LINE
  5
1953
  8
标注
 10
279.38185460453008
 20
155.4443957570584
 30
0.0
 11
279.38185460453008
 21
162.94439575702199
 31
0.0
  0
LINE
  5
1954
  8
标注
 10
279.38185460453008
 20
172.1443957569854
 30
0.0
 11
279.38185460453008
 21
164.64439575702201
 31
0.0
  0
SOLID
  5
1955
  8
标注
 10
279.27352127119678
 20
155.4443957570584
 30
0.0
 11
279.49018793786348
 21
155.4443957570584
 31
0.0
 12
279.38185460453008
 22
154.7943957570584
 32
0.0
 13
279.38185460453008
 23
154.7943957570584
 33
0.0
  0
SOLID
  5
1956
  8
标注
 10
279.27352127119678
 20
172.1443957569854
 30
0.0
 11
279.49018793786348
 21
172.1443957569854
 31
0.0
 12
279.38185460453008
 22
172.79439575698561
 32
0.0
 13
279.38185460453008
 23
172.79439575698561
 33
0.0
  0
INSERT
  5
1957
  8
标注
  2
*U12
 10
0.0
 20
0.0
 30
0.0
  0
POINT
  5
1958
  8
DEFPOINTS
 62
     0
 10
275.70135583593452
 20
154.7943957570584
 30
0.0
  0
POINT
  5
1959
  8
DEFPOINTS
 62
     0
 10
275.70135583593452
 20
172.79439575698561
 30
0.0
  0
POINT
  5
195A
  8
DEFPOINTS
 62
     0
 10
279.38185460453008
 20
172.79439575698561
 30
0.0
  0
ENDBLK
  5
1945
  8
0
  0
BLOCK
  8
0
  2
*U12
 70
     1
 10
0.0
 20
0.0
 30
0.0
  3
*U12
  1

  0
TEXT
  5
1D43
  8
标注
 10
279.70685460453012
 20
163.1443957570219
 30
0.0
 40
0.65
  1
18"
 50
90.0
  0
ENDBLK
  5
1D45
  8
0
  0
BLOCK
  8
0
  2
*D13
 70
     1
 10
0.0
 20
0.0
 30
0.0
  3
*D13
  1

  0
LINE
  5
196B
  8
标注
 10
248.7126023456172
 20
114.8692766070514
 30
0.0
 11
248.7126023456172
 21
112.6370075107335
 31
0.0
  0
LINE
  5
196C
  8
标注
 10
276.87008266046598
 20
114.8692766070514
 30
0.0
 11
276.87008266046598
 21
112.6370075107335
 31
0.0
  0
LINE
  5
196D
  8
标注
 10
249.3626023456172
 20
112.9570075107335
 30
0.0
 11
260.64134250304159
 21
112.9570075107335
 31
0.0
  0
LINE
  5
196E
  8
标注
 10
276.22008266046589
 20
112.9570075107335
 30
0.0
 11
264.94134250304148
 21
112.9570075107335
 31
0.0
  0
SOLID
  5
196F
  8
标注
 10
249.3626023456172
 20
113.0653408440668
 30
0.0
 11
249.3626023456172
 21
112.8486741774002
 31
0.0
 12
248.7126023456172
 22
112.9570075107335
 32
0.0
 13
248.7126023456172
 23
112.9570075107335
 33
0.0
  0
SOLID
  5
1970
  8
标注
 10
276.22008266046589
 20
113.0653408440668
 30
0.0
 11
276.22008266046589
 21
112.8486741774002
 31
0.0
 12
276.87008266046598
 22
112.9570075107335
 32
0.0
 13
276.87008266046598
 23
112.9570075107335
 33
0.0
  0
INSERT
  5
1971
  8
标注
  2
*U14
 10
0.0
 20
0.0
 30
0.0
  0
POINT
  5
1972
  8
DEFPOINTS
 62
     0
 10
248.7126023456172
 20
115.7492766070514
 30
0.0
  0
POINT
  5
1973
  8
DEFPOINTS
 62
     0
 10
276.87008266046598
 20
115.7492766070514
 30
0.0
  0
POINT
  5
1974
  8
DEFPOINTS
 62
     0
 10
276.87008266046598
 20
112.9570075107335
 30
0.0
  0
ENDBLK
  5
195F
  8
0
  0
BLOCK
  8
0
  2
*U14
 70
     1
 10
0.0
 20
0.0
 30
0.0
  3
*U14
  1

  0
TEXT
  5
1D47
  8
标注
 10
260.84134250304152
 20
112.6320075107335
 30
0.0
 40
0.65
  1
28 1/8"
  0
ENDBLK
  5
1D49
  8
0
  0
BLOCK
  8
0
  2
*D15
 70
     1
 10
0.0
 20
0.0
 30
0.0
  3
*D15
  1

  0
LINE
  5
1985
  8
标注
 10
277.75008266046592
 20
115.7492766070514
 30
0.0
 11
279.32676146406828
 21
115.7492766070514
 31
0.0
  0
LINE
  5
1986
  8
标注
 10
277.75008266046592
 20
131.9067569219456
 30
0.0
 11
279.3267614640684
 21
131.9067569219456
 31
0.0
  0
LINE
  5
1987
  8
标注
 10
279.00676146406829
 20
116.39927660705141
 30
0.0
 11
279.00676146406829
 21
121.7863500978319
 31
0.0
  0
LINE
  5
1988
  8
标注
 10
279.0067614640684
 20
131.25675692194559
 30
0.0
 11
279.00676146406829
 21
125.8696834311652
 31
0.0
  0
SOLID
  5
1989
  8
标注
 10
278.898428130735
 20
116.39927660705141
 30
0.0
 11
279.1150947974017
 21
116.39927660705141
 31
0.0
 12
279.00676146406829
 22
115.7492766070514
 32
0.0
 13
279.00676146406829
 23
115.7492766070514
 33
0.0
  0
SOLID
  5
198A
  8
标注
 10
278.898428130735
 20
131.25675692194559
 30
0.0
 11
279.1150947974017
 21
131.25675692194559
 31
0.0
 12
279.0067614640684
 22
131.9067569219456
 32
0.0
 13
279.0067614640684
 23
131.9067569219456
 33
0.0
  0
INSERT
  5
198B
  8
标注
  2
*U16
 10
0.0
 20
0.0
 30
0.0
  0
POINT
  5
198C
  8
DEFPOINTS
 62
     0
 10
276.87008266046598
 20
115.7492766070514
 30
0.0
  0
POINT
  5
198D
  8
DEFPOINTS
 62
     0
 10
276.87008266046598
 20
131.9067569219456
 30
0.0
  0
POINT
  5
198E
  8
DEFPOINTS
 62
     0
 10
279.0067614640684
 20
131.9067569219456
 30
0.0
  0
ENDBLK
  5
1979
  8
0
  0
BLOCK
  8
0
  2
*U16
 70
     1
 10
0.0
 20
0.0
 30
0.0
  3
*U16
  1

  0
TEXT
  5
1D4B
  8
标注
 10
279.33176146406828
 20
121.9863500978319
 30
0.0
 40
0.65
  1
16 1/8"
 50
90.0
  0
ENDBLK
  5
1D4D
  8
0
  0
BLOCK
  8
0
  2
_NONE
 70
     0
 10
0.0
 20
0.0
 30
0.0
  3
_NONE
  1

  0
ENDBLK
  5
1AF0
  8
0
  0
BLOCK
  8
0
  2
*D18
 70
     1
 10
0.0
 20
0.0
 30
0.0
  3
*D18
  1

  0
LINE
  5
1C7B
  8
标注
  6
BYBLOCK
 10
329.22996386603847
 20
151.42531420894281
 30
0.0
 11
329.22996386603847
 21
149.5979431051932
 31
0.0
  0
LINE
  5
1C7C
  8
标注
  6
BYBLOCK
 10
359.22996386592212
 20
151.42531420894281
 30
0.0
 11
359.22996386592212
 21
149.5979431051932
 31
0.0
  0
LINE
  5
1C7D
  8
标注
  6
BYBLOCK
 10
329.87996386603851
 20
149.9179431051933
 30
0.0
 11
343.32579719931368
 21
149.9179431051933
 31
0.0
  0
LINE
  5
1C7E
  8
标注
  6
BYBLOCK
 10
358.57996386592208
 20
149.9179431051933
 30
0.0
 11
345.13413053264708
 21
149.9179431051933
 31
0.0
  0
SOLID
  5
1C7F
  8
标注
 10
329.87996386603851
 20
150.02627643852659
 30
0.0
 11
329.87996386603851
 21
149.8096097718599
 31
0.0
 12
329.22996386603847
 22
149.9179431051933
 32
0.0
 13
329.22996386603847
 23
149.9179431051933
 33
0.0
  0
SOLID
  5
1C80
  8
标注
 10
358.57996386592208
 20
150.02627643852659
 30
0.0
 11
358.57996386592208
 21
149.8096097718599
 31
0.0
 12
359.22996386592212
 22
149.9179431051933
 32
0.0
 13
359.22996386592212
 23
149.9179431051933
 33
0.0
  0
INSERT
  5
1C81
  8
标注
  2
*U19
 10
0.0
 20
0.0
 30
0.0
  0
POINT
  5
1C82
  8
DEFPOINTS
 62
     0
 10
329.22996386603847
 20
152.3053142089428
 30
0.0
  0
POINT
  5
1C83
  8
DEFPOINTS
 62
     0
 10
359.22996386592212
 20
152.3053142089428
 30
0.0
  0
POINT
  5
1C84
  8
DEFPOINTS
 62
     0
 10
359.22996386592212
 20
149.9179431051933
 30
0.0
  0
ENDBLK
  5
1B8E
  8
0
  0
BLOCK
  8
0
  2
*U19
 70
     1
 10
0.0
 20
0.0
 30
0.0
  3
*U19
  1

  0
TEXT
  5
1D5E
  8
标注
 10
343.52579719931367
 20
149.5929431051932
 30
0.0
 40
0.65
  1
30"
  0
ENDBLK
  5
1D60
  8
0
  0
BLOCK
  8
0
  2
*D20
 70
     1
 10
0.0
 20
0.0
 30
0.0
  3
*D20
  1

  0
LINE
  5
1C85
  8
标注
  6
BYBLOCK
 10
328.22996386603847
 20
151.42531420894281
 30
0.0
 11
328.22996386603847
 21
148.39944058882071
 31
0.0
  0
LINE
  5
1C86
  8
标注
  6
BYBLOCK
 10
360.22996386592212
 20
151.42531420894281
 30
0.0
 11
360.22996386592212
 21
148.39944058882071
 31
0.0
  0
LINE
  5
1C87
  8
标注
  6
BYBLOCK
 10
328.87996386603851
 20
148.71944058882059
 30
0.0
 11
343.27163053264701
 21
148.71944058882059
 31
0.0
  0
LINE
  5
1C88
  8
标注
  6
BYBLOCK
 10
359.57996386592208
 20
148.71944058882059
 30
0.0
 11
345.18829719931358
 21
148.71944058882059
 31
0.0
  0
SOLID
  5
1C89
  8
标注
 10
328.87996386603851
 20
148.82777392215399
 30
0.0
 11
328.87996386603851
 21
148.61110725548741
 31
0.0
 12
328.22996386603847
 22
148.71944058882059
 32
0.0
 13
328.22996386603847
 23
148.71944058882059
 33
0.0
  0
SOLID
  5
1C8A
  8
标注
 10
359.57996386592208
 20
148.82777392215399
 30
0.0
 11
359.57996386592208
 21
148.61110725548741
 31
0.0
 12
360.22996386592212
 22
148.71944058882059
 32
0.0
 13
360.22996386592212
 23
148.71944058882059
 33
0.0
  0
INSERT
  5
1C8B
  8
标注
  2
*U21
 10
0.0
 20
0.0
 30
0.0
  0
POINT
  5
1C8C
  8
DEFPOINTS
 62
     0
 10
328.22996386603847
 20
152.3053142089428
 30
0.0
  0
POINT
  5
1C8D
  8
DEFPOINTS
 62
     0
 10
360.22996386592212
 20
152.3053142089428
 30
0.0
  0
POINT
  5
1C8E
  8
DEFPOINTS
 62
     0
 10
360.22996386592212
 20
148.71944058882059
 30
0.0
  0
ENDBLK
  5
1BA8
  8
0
  0
BLOCK
  8
0
  2
*U21
 70
     1
 10
0.0
 20
0.0
 30
0.0
  3
*U21
  1

  0
TEXT
  5
1D62
  8
标注
 10
343.471630532647
 20
148.39444058882069
 30
0.0
 40
0.65
  1
32"
  0
ENDBLK
  5
1D64
  8
0
  0
BLOCK
  8
0
  2
*D22
 70
     1
 10
0.0
 20
0.0
 30
0.0
  3
*D22
  1

  0
LINE
  5
1C8F
  8
标注
  6
BYBLOCK
 10
361.10996386592211
 20
153.3053142089428
 30
0.0
 11
362.155379199084
 21
153.3053142089428
 31
0.0
  0
LINE
  5
1C90
  8
标注
  6
BYBLOCK
 10
361.10996386592211
 20
169.3053142088846
 30
0.0
 11
362.155379199084
 21
169.3053142088846
 31
0.0
  0
LINE
  5
1C91
  8
标注
  6
BYBLOCK
 10
361.835379199084
 20
153.95531420894281
 30
0.0
 11
361.835379199084
 21
160.45531420891371
 31
0.0
  0
LINE
  5
1C92
  8
标注
  6
BYBLOCK
 10
361.835379199084
 20
168.65531420888459
 30
0.0
 11
361.835379199084
 21
162.15531420891369
 31
0.0
  0
SOLID
  5
1C93
  8
标注
 10
361.72704586575071
 20
153.95531420894281
 30
0.0
 11
361.94371253241752
 21
153.95531420894281
 31
0.0
 12
361.835379199084
 22
153.3053142089428
 32
0.0
 13
361.835379199084
 23
153.3053142089428
 33
0.0
  0
SOLID
  5
1C94
  8
标注
 10
361.72704586575071
 20
168.65531420888459
 30
0.0
 11
361.94371253241752
 21
168.65531420888459
 31
0.0
 12
361.835379199084
 22
169.3053142088846
 32
0.0
 13
361.835379199084
 23
169.3053142088846
 33
0.0
  0
INSERT
  5
1C95
  8
标注
  2
*U23
 10
0.0
 20
0.0
 30
0.0
  0
POINT
  5
1C96
  8
DEFPOINTS
 62
     0
 10
360.22996386592212
 20
153.3053142089428
 30
0.0
  0
POINT
  5
1C97
  8
DEFPOINTS
 62
     0
 10
360.22996386592212
 20
169.3053142088846
 30
0.0
  0
POINT
  5
1C98
  8
DEFPOINTS
 62
     0
 10
361.835379199084
 20
169.3053142088846
 30
0.0
  0
ENDBLK
  5
1BC2
  8
0
  0
BLOCK
  8
0
  2
*U23
 70
     1
 10
0.0
 20
0.0
 30
0.0
  3
*U23
  1

  0
TEXT
  5
1D66
  8
标注
 10
362.16037919908388
 20
160.65531420891381
 30
0.0
 40
0.65
  1
16"
 50
90.0
  0
ENDBLK
  5
1D68
  8
0
  0
BLOCK
  8
0
  2
*D24
 70
     1
 10
0.0
 20
0.0
 30
0.0
  3
*D24
  1

  0
LINE
  5
1C99
  8
标注
  6
BYBLOCK
 10
361.10996386592211
 20
152.3053142089428
 30
0.0
 11
363.55431005100138
 21
152.3053142089428
 31
0.0
  0
LINE
  5
1C9A
  8
标注
  6
BYBLOCK
 10
361.10996386592211
 20
170.30531420886999
 30
0.0
 11
363.55431005100138
 21
170.30531420886999
 31
0.0
  0
LINE
  5
1C9B
  8
标注
  6
BYBLOCK
 10
363.23431005100127
 20
152.95531420894281
 30
0.0
 11
363.23431005100127
 21
160.4553142089064
 31
0.0
  0
LINE
  5
1C9C
  8
标注
  6
BYBLOCK
 10
363.23431005100127
 20
169.6553142088701
 30
0.0
 11
363.23431005100127
 21
162.15531420890639
 31
0.0
  0
SOLID
  5
1C9D
  8
标注
 10
363.12597671766798
 20
152.95531420894281
 30
0.0
 11
363.34264338433462
 21
152.95531420894281
 31
0.0
 12
363.23431005100127
 22
152.3053142089428
 32
0.0
 13
363.23431005100127
 23
152.3053142089428
 33
0.0
  0
SOLID
  5
1C9E
  8
标注
 10
363.12597671766798
 20
169.6553142088701
 30
0.0
 11
363.34264338433462
 21
169.6553142088701
 31
0.0
 12
363.23431005100127
 22
170.30531420886999
 32
0.0
 13
363.23431005100127
 23
170.30531420886999
 33
0.0
  0
INSERT
  5
1C9F
  8
标注
  2
*U25
 10
0.0
 20
0.0
 30
0.0
  0
POINT
  5
1CA0
  8
DEFPOINTS
 62
     0
 10
360.22996386592212
 20
152.3053142089428
 30
0.0
  0
POINT
  5
1CA1
  8
DEFPOINTS
 62
     0
 10
360.22996386592212
 20
170.30531420886999
 30
0.0
  0
POINT
  5
1CA2
  8
DEFPOINTS
 62
     0
 10
363.23431005100127
 20
170.30531420886999
 30
0.0
  0
ENDBLK
  5
1BDC
  8
0
  0
BLOCK
  8
0
  2
*U25
 70
     1
 10
0.0
 20
0.0
 30
0.0
  3
*U25
  1

  0
TEXT
  5
1D6A
  8
标注
 10
363.55931005100132
 20
160.6553142089065
 30
0.0
 40
0.65
  1
18"
 50
90.0
  0
ENDBLK
  5
1D6C
  8
0
  0
BLOCK
  8
0
  2
*D26
 70
     1
 10
0.0
 20
0.0
 30
0.0
  3
*D26
  1

  0
LINE
  5
1C2B
  8
标注
  6
BYBLOCK
 10
361.10996386592211
 20
189.9339840107005
 30
0.0
 11
362.26818220725443
 21
189.9339840107005
 31
0.0
  0
LINE
  5
1C2C
  8
标注
  6
BYBLOCK
 10
361.10958542980592
 20
179.99101187994731
 30
0.0
 11
362.26818220725443
 21
179.99101187994731
 31
0.0
  0
LINE
  5
1C2D
  8
标注
  6
BYBLOCK
 10
361.94818220725438
 20
189.28398401070041
 30
0.0
 11
361.94818220725438
 21
185.7583312786571
 31
0.0
  0
LINE
  5
1C2E
  8
标注
  6
BYBLOCK
 10
361.94818220725438
 20
180.64101187994731
 30
0.0
 11
361.94818220725438
 21
184.1666646119906
 31
0.0
  0
SOLID
  5
1C2F
  8
标注
 10
361.83984887392103
 20
189.28398401070041
 30
0.0
 11
362.05651554058772
 21
189.28398401070041
 31
0.0
 12
361.94818220725438
 22
189.9339840107005
 32
0.0
 13
361.94818220725438
 23
189.9339840107005
 33
0.0
  0
SOLID
  5
1C30
  8
标注
 10
361.83984887392103
 20
180.64101187994731
 30
0.0
 11
362.05651554058772
 21
180.64101187994731
 31
0.0
 12
361.94818220725438
 22
179.99101187994731
 32
0.0
 13
361.94818220725438
 23
179.99101187994731
 33
0.0
  0
INSERT
  5
1C31
  8
标注
  2
*U27
 10
0.0
 20
0.0
 30
0.0
  0
POINT
  5
1C32
  8
DEFPOINTS
 62
     0
 10
360.22996386592212
 20
189.9339840107005
 30
0.0
  0
POINT
  5
1C33
  8
DEFPOINTS
 62
     0
 10
360.22958542980592
 20
179.99101187994731
 30
0.0
  0
POINT
  5
1C34
  8
DEFPOINTS
 62
     0
 10
361.94818220725438
 20
179.99101187994731
 30
0.0
  0
ENDBLK
  5
1BF6
  8
0
  0
BLOCK
  8
0
  2
*U27
 70
     1
 10
0.0
 20
0.0
 30
0.0
  3
*U27
  1

  0
TEXT
  5
1D5A
  8
标注
 10
362.27318220725431
 20
184.3666646119905
 30
0.0
 40
0.65
  1
10"
 50
90.0
  0
ENDBLK
  5
1D5C
  8
0
  0
BLOCK
  8
0
  2
*D28
 70
     1
 10
0.0
 20
0.0
 30
0.0
  3
*D28
  1

  0
LINE
  5
1CC5
  8
标注
  6
BYBLOCK
 10
360.227089264992
 20
114.54638093061079
 30
0.0
 11
361.45695892393837
 21
114.54638093061079
 31
0.0
  0
LINE
  5
1CC6
  8
标注
  6
BYBLOCK
 10
360.227089264992
 20
130.70386170300631
 30
0.0
 11
361.45695892393837
 21
130.70386170300631
 31
0.0
  0
LINE
  5
1CC7
  8
标注
  6
BYBLOCK
 10
361.13695892393838
 20
115.1963809306108
 30
0.0
 11
361.13695892393838
 21
120.5834546501419
 31
0.0
  0
LINE
  5
1CC8
  8
标注
  6
BYBLOCK
 10
361.13695892393838
 20
130.05386170300631
 30
0.0
 11
361.13695892393838
 21
124.6667879834752
 31
0.0
  0
SOLID
  5
1CC9
  8
标注
 10
361.02862559060492
 20
115.1963809306108
 30
0.0
 11
361.24529225727167
 21
115.1963809306108
 31
0.0
 12
361.13695892393838
 22
114.54638093061079
 32
0.0
 13
361.13695892393838
 23
114.54638093061079
 33
0.0
  0
SOLID
  5
1CCA
  8
标注
 10
361.02862559060509
 20
130.05386170300631
 30
0.0
 11
361.24529225727167
 21
130.05386170300631
 31
0.0
 12
361.13695892393838
 22
130.70386170300631
 32
0.0
 13
361.13695892393838
 23
130.70386170300631
 33
0.0
  0
INSERT
  5
1CCB
  8
标注
  2
*U29
 10
0.0
 20
0.0
 30
0.0
  0
POINT
  5
1CCC
  8
DEFPOINTS
 62
     0
 10
359.34708926499212
 20
114.54638093061079
 30
0.0
  0
POINT
  5
1CCD
  8
DEFPOINTS
 62
     0
 10
359.34708926499212
 20
130.70386170300631
 30
0.0
  0
POINT
  5
1CCE
  8
DEFPOINTS
 62
     0
 10
361.13695892393838
 20
130.70386170300631
 30
0.0
  0
ENDBLK
  5
1CB9
  8
0
  0
BLOCK
  8
0
  2
*U29
 70
     1
 10
0.0
 20
0.0
 30
0.0
  3
*U29
  1

  0
TEXT
  5
1D6E
  8
标注
 10
361.46195892393843
 20
120.78345465014191
 30
0.0
 40
0.65
  1
16 1/8"
 50
90.0
  0
ENDBLK
  5
1D70
  8
0
  0
BLOCK
  8
0
  2
*D30
 70
     1
 10
0.0
 20
0.0
 30
0.0
  3
*D30
  1

  0
LINE
  5
1CDF
  8
标注
  6
BYBLOCK
 10
329.18960895015249
 20
113.6663813881085
 30
0.0
 11
329.18960895015249
 21
111.91154385154699
 31
0.0
  0
LINE
  5
1CE0
  8
标注
  6
BYBLOCK
 10
359.34708926499212
 20
113.6663809306108
 30
0.0
 11
359.34708926499212
 21
111.91154385154699
 31
0.0
  0
LINE
  5
1CE1
  8
标注
  6
BYBLOCK
 10
329.83960895015252
 20
112.2315438515469
 30
0.0
 11
342.172515774239
 21
112.2315438515469
 31
0.0
  0
LINE
  5
1CE2
  8
标注
  6
BYBLOCK
 10
358.69708926499209
 20
112.2315438515469
 30
0.0
 11
346.36418244090561
 21
112.2315438515469
 31
0.0
  0
SOLID
  5
1CE3
  8
标注
 10
329.83960895015252
 20
112.33987718488019
 30
0.0
 11
329.83960895015252
 21
112.1232105182136
 31
0.0
 12
329.18960895015249
 22
112.2315438515469
 32
0.0
 13
329.18960895015249
 23
112.2315438515469
 33
0.0
  0
SOLID
  5
1CE4
  8
标注
 10
358.69708926499209
 20
112.33987718488019
 30
0.0
 11
358.69708926499209
 21
112.1232105182136
 31
0.0
 12
359.34708926499212
 22
112.2315438515469
 32
0.0
 13
359.34708926499212
 23
112.2315438515469
 33
0.0
  0
INSERT
  5
1CE5
  8
标注
  2
*U31
 10
0.0
 20
0.0
 30
0.0
  0
POINT
  5
1CE6
  8
DEFPOINTS
 62
     0
 10
329.18960895015249
 20
114.5463813881085
 30
0.0
  0
POINT
  5
1CE7
  8
DEFPOINTS
 62
     0
 10
359.34708926499212
 20
114.54638093061079
 30
0.0
  0
POINT
  5
1CE8
  8
DEFPOINTS
 62
     0
 10
359.34708926499212
 20
112.2315438515469
 30
0.0
  0
ENDBLK
  5
1CD3
  8
0
  0
BLOCK
  8
0
  2
*U31
 70
     1
 10
0.0
 20
0.0
 30
0.0
  3
*U31
  1

  0
TEXT
  5
1D72
  8
标注
 10
342.37251577423888
 20
111.9065438515469
 30
0.0
 40
0.65
  1
30 1/8"
  0
ENDBLK
  5
1D74
  8
0
  0
BLOCK
  8
0
  2
*U32
 70
     1
 10
0.0
 20
0.0
 30
0.0
  3
*U32
  1

  0
TEXT
  5
1D52
  8
标注
 10
340.94705816205021
 20
176.95058849161899
 30
0.0
 40
0.7874015748031497
  1
FRONT VIEW
  0
ENDBLK
  5
1D54
  8
0
  0
BLOCK
  8
0
  2
*U33
 70
     1
 10
0.0
 20
0.0
 30
0.0
  3
*U33
  1

  0
TEXT
  5
1D56
  8
标注
 10
339.05673701527212
 20
145.4660662778964
 30
0.0
 40
0.7874015748031497
  1
OVERHEAD VIEW
  0
ENDBLK
  5
1D58
  8
0
  0
BLOCK
  8
0
  2
*U34
 70
     1
 10
0.0
 20
0.0
 30
0.0
  3
*U34
  1

  0
TEXT
  5
1D76
  8
标注
 10
7.665406168108972
 20
0.2986209613956193
 30
0.0
 40
0.7874015748031497
  1
 CUTOUT
  0
ENDBLK
  5
1D78
  8
0
  0
BLOCK
  8
0
  2
*U35
 70
     1
 10
0.0
 20
0.0
 30
0.0
  3
*U35
  1

  0
TEXT
  5
1D7A
  8
标注
 10
346.17944279127312
 20
107.85747900264759
 30
0.0
 40
0.7874015748031497
  1
 CUTOUT
  0
ENDBLK
  5
1D7C
  8
0
  0
BLOCK
  8
0
  2
*D36
 70
     1
 10
0.0
 20
0.0
 30
0.0
  3
*D36
  1

  0
LINE
  5
2157
  8
标注
  6
CONTINUOUS
 10
409.81772558444078
 20
179.20227785928111
 30
0.0
 11
410.60013661492911
 21
179.20227785928111
 31
0.0
  0
LINE
  5
2158
  8
标注
  6
CONTINUOUS
 10
409.81772558444078
 20
185.2495219537679
 30
0.0
 11
410.60013661492911
 21
185.2495219537679
 31
0.0
  0
LINE
  5
2159
  8
标注
  6
CONTINUOUS
 10
410.28013661492912
 20
179.85227785928109
 30
0.0
 11
410.28013661492912
 21
181.59256657319119
 31
0.0
  0
LINE
  5
215A
  8
标注
  6
CONTINUOUS
 10
410.28013661492912
 20
184.59952195376789
 30
0.0
 11
410.28013661492912
 21
182.8592332398577
 31
0.0
  0
SOLID
  5
215B
  8
标注
 10
410.17180328159571
 20
179.85227785928109
 30
0.0
 11
410.38846994826241
 21
179.85227785928109
 31
0.0
 12
410.28013661492912
 22
179.20227785928111
 32
0.0
 13
410.28013661492912
 23
179.20227785928111
 33
0.0
  0
SOLID
  5
215C
  8
标注
 10
410.17180328159571
 20
184.59952195376789
 30
0.0
 11
410.38846994826241
 21
184.59952195376789
 31
0.0
 12
410.28013661492912
 22
185.2495219537679
 32
0.0
 13
410.28013661492912
 23
185.2495219537679
 33
0.0
  0
TEXT
  5
2185
  8
标注
 10
408.98000000000002
 20
181.07499999999999
 30
0.0
 40
0.65
  1
6"
  0
POINT
  5
215E
  8
DEFPOINTS
 62
     0
 10
408.93772558444078
 20
179.20227785928111
 30
0.0
  0
POINT
  5
215F
  8
DEFPOINTS
 62
     0
 10
408.93772558444078
 20
185.2495219537679
 30
0.0
  0
POINT
  5
2160
  8
DEFPOINTS
 62
     0
 10
410.28013661492912
 20
185.2495219537679
 30
0.0
  0
ENDBLK
  5
1FE7
  8
0
  0
BLOCK
  8
0
  2
*D37
 70
     1
 10
0.0
 20
0.0
 30
0.0
  3
*D37
  1

  0
LINE
  5
2003
  8
标注
  6
CONTINUOUS
 10
390.3357595618325
 20
153.7774314132046
 30
0.0
 11
390.3357595618325
 21
152.0812003199751
 31
0.0
  0
LINE
  5
2004
  8
标注
  6
CONTINUOUS
 10
427.00334834340453
 20
153.77743141298041
 30
0.0
 11
427.00334834340453
 21
152.0812003199751
 31
0.0
  0
LINE
  5
2005
  8
标注
  6
CONTINUOUS
 10
390.98575956183248
 20
152.40120031997509
 30
0.0
 11
406.41122061928507
 21
152.40120031997509
 31
0.0
  0
LINE
  5
2006
  8
标注
  6
CONTINUOUS
 10
426.3533483434046
 20
152.40120031997509
 30
0.0
 11
410.92788728595173
 21
152.40120031997509
 31
0.0
  0
SOLID
  5
2007
  8
标注
 10
390.98575956183248
 20
152.50953365330841
 30
0.0
 11
390.98575956183248
 21
152.29286698664171
 31
0.0
 12
390.3357595618325
 22
152.40120031997509
 32
0.0
 13
390.3357595618325
 23
152.40120031997509
 33
0.0
  0
SOLID
  5
2008
  8
标注
 10
426.3533483434046
 20
152.50953365330841
 30
0.0
 11
426.3533483434046
 21
152.29286698664171
 31
0.0
 12
427.00334834340453
 22
152.40120031997509
 32
0.0
 13
427.00334834340453
 23
152.40120031997509
 33
0.0
  0
INSERT
  5
2009
  8
标注
  2
*U38
 10
0.0
 20
0.0
 30
0.0
  0
POINT
  5
200A
  8
DEFPOINTS
 62
     0
 10
390.3357595618325
 20
154.65743141320459
 30
0.0
  0
POINT
  5
200B
  8
DEFPOINTS
 62
     0
 10
427.00334834340453
 20
154.6574314129804
 30
0.0
  0
POINT
  5
200C
  8
DEFPOINTS
 62
     0
 10
427.00334834340453
 20
152.40120031997509
 30
0.0
  0
ENDBLK
  5
2002
  8
0
  0
BLOCK
  8
0
  2
*U38
 70
     1
 10
0.0
 20
0.0
 30
0.0
  3
*U38
  1

  0
TEXT
  5
2162
  8
标注
 10
406.61122061928512
 20
152.0762003199751
 30
0.0
 40
0.65
  1
36 5/8"
  0
ENDBLK
  5
2164
  8
0
  0
BLOCK
  8
0
  2
*D39
 70
     1
 10
0.0
 20
0.0
 30
0.0
  3
*D39
  1

  0
LINE
  5
2011
  8
标注
  6
CONTINUOUS
 10
389.87460782330601
 20
152.43526163578471
 30
0.0
 11
389.87460782330601
 21
149.9923689513636
 31
0.0
  0
LINE
  5
2012
  8
标注
  6
CONTINUOUS
 10
427.46450008158729
 20
152.43526163578471
 30
0.0
 11
427.46450008158729
 21
149.9923689513636
 31
0.0
  0
LINE
  5
2013
  8
标注
  6
CONTINUOUS
 10
390.52460782330598
 20
150.31236895136351
 30
0.0
 11
406.41122061911352
 21
150.31236895136351
 31
0.0
  0
LINE
  5
2014
  8
标注
  6
CONTINUOUS
 10
426.81450008158743
 20
150.31236895136351
 30
0.0
 11
410.92788728577989
 21
150.31236895136351
 31
0.0
  0
SOLID
  5
2015
  8
标注
 10
390.52460782330598
 20
150.42070228469689
 30
0.0
 11
390.52460782330598
 21
150.20403561803019
 31
0.0
 12
389.87460782330601
 22
150.31236895136351
 32
0.0
 13
389.87460782330601
 23
150.31236895136351
 33
0.0
  0
SOLID
  5
2016
  8
标注
 10
426.81450008158743
 20
150.42070228469689
 30
0.0
 11
426.81450008158743
 21
150.20403561803019
 31
0.0
 12
427.46450008158729
 22
150.31236895136351
 32
0.0
 13
427.46450008158729
 23
150.31236895136351
 33
0.0
  0
INSERT
  5
2017
  8
标注
  2
*U40
 10
0.0
 20
0.0
 30
0.0
  0
POINT
  5
2018
  8
DEFPOINTS
 62
     0
 10
389.87460782330601
 20
153.31526163578471
 30
0.0
  0
POINT
  5
2019
  8
DEFPOINTS
 62
     0
 10
427.46450008158729
 20
153.31526163578471
 30
0.0
  0
POINT
  5
201A
  8
DEFPOINTS
 62
     0
 10
427.46450008158729
 20
150.31236895136351
 30
0.0
  0
ENDBLK
  5
2010
  8
0
  0
BLOCK
  8
0
  2
*U40
 70
     1
 10
0.0
 20
0.0
 30
0.0
  3
*U40
  1

  0
TEXT
  5
2166
  8
标注
 10
406.61122061911328
 20
149.98736895136341
 30
0.0
 40
0.65
  1
37 5/8"
  0
ENDBLK
  5
2168
  8
0
  0
BLOCK
  8
0
  2
*D41
 70
     1
 10
0.0
 20
0.0
 30
0.0
  3
*D41
  1

  0
LINE
  5
201F
  8
标注
  6
CONTINUOUS
 10
429.8362278814032
 20
161.3877034644367
 30
0.0
 11
429.8362278814032
 21
167.89203305956829
 31
0.0
  0
LINE
  5
2020
  8
标注
  6
CONTINUOUS
 10
387.50288002339772
 20
161.3877034643977
 30
0.0
 11
387.50288002339772
 21
167.89203305956829
 31
0.0
  0
LINE
  5
2021
  8
标注
  6
CONTINUOUS
 10
429.18622788140323
 20
167.5720330595683
 30
0.0
 11
410.92788728573368
 21
167.5720330595683
 31
0.0
  0
LINE
  5
2022
  8
标注
  6
CONTINUOUS
 10
388.1528800233977
 20
167.5720330595683
 30
0.0
 11
406.41122061906708
 21
167.5720330595683
 31
0.0
  0
SOLID
  5
2023
  8
标注
 10
429.18622788140323
 20
167.68036639290159
 30
0.0
 11
429.18622788140323
 21
167.46369972623501
 31
0.0
 12
429.8362278814032
 22
167.5720330595683
 32
0.0
 13
429.8362278814032
 23
167.5720330595683
 33
0.0
  0
SOLID
  5
2024
  8
标注
 10
388.1528800233977
 20
167.68036639290159
 30
0.0
 11
388.1528800233977
 21
167.46369972623501
 31
0.0
 12
387.50288002339772
 22
167.5720330595683
 32
0.0
 13
387.50288002339772
 23
167.5720330595683
 33
0.0
  0
INSERT
  5
2025
  8
标注
  2
*U42
 10
0.0
 20
0.0
 30
0.0
  0
POINT
  5
2026
  8
DEFPOINTS
 62
     0
 10
429.8362278814032
 20
160.5077034644367
 30
0.0
  0
POINT
  5
2027
  8
DEFPOINTS
 62
     0
 10
387.50288002339772
 20
160.50770346439771
 30
0.0
  0
POINT
  5
2028
  8
DEFPOINTS
 62
     0
 10
387.50288002339772
 20
167.5720330595683
 30
0.0
  0
ENDBLK
  5
201E
  8
0
  0
BLOCK
  8
0
  2
*U42
 70
     1
 10
0.0
 20
0.0
 30
0.0
  3
*U42
  1

  0
TEXT
  5
216A
  8
标注
 10
406.61122061906713
 20
167.24703305956831
 30
0.0
 40
0.65
  1
42 3/8"
  0
ENDBLK
  5
216C
  8
0
  0
BLOCK
  8
0
  2
*D43
 70
     1
 10
0.0
 20
0.0
 30
0.0
  3
*D43
  1

  0
LINE
  5
202D
  8
标注
  6
CONTINUOUS
 10
431.16955395235942
 20
161.84668938448931
 30
0.0
 11
431.16955395235942
 21
169.4081527174404
 31
0.0
  0
LINE
  5
202E
  8
标注
  6
CONTINUOUS
 10
386.16955396190491
 20
161.84668938920581
 30
0.0
 11
386.16955396190491
 21
169.4081527174404
 31
0.0
  0
LINE
  5
202F
  8
标注
  6
CONTINUOUS
 10
430.51955395235939
 20
169.08815271744029
 30
0.0
 11
409.62788729046548
 21
169.08815271744029
 31
0.0
  0
LINE
  5
2030
  8
标注
  6
CONTINUOUS
 10
386.819553961905
 20
169.08815271744029
 30
0.0
 11
407.71122062379879
 21
169.08815271744029
 31
0.0
  0
SOLID
  5
2031
  8
标注
 10
430.51955395235939
 20
169.1964860507737
 30
0.0
 11
430.51955395235939
 21
168.979819384107
 31
0.0
 12
431.16955395235942
 22
169.08815271744029
 32
0.0
 13
431.16955395235942
 23
169.08815271744029
 33
0.0
  0
SOLID
  5
2032
  8
标注
 10
386.819553961905
 20
169.1964860507737
 30
0.0
 11
386.819553961905
 21
168.979819384107
 31
0.0
 12
386.16955396190491
 22
169.08815271744029
 32
0.0
 13
386.16955396190491
 23
169.08815271744029
 33
0.0
  0
INSERT
  5
2033
  8
标注
  2
*U44
 10
0.0
 20
0.0
 30
0.0
  0
POINT
  5
2034
  8
DEFPOINTS
 62
     0
 10
431.16955395235942
 20
160.96668938448931
 30
0.0
  0
POINT
  5
2035
  8
DEFPOINTS
 62
     0
 10
386.16955396190491
 20
160.9666893892059
 30
0.0
  0
POINT
  5
2036
  8
DEFPOINTS
 62
     0
 10
386.16955396190491
 20
169.08815271744029
 30
0.0
  0
ENDBLK
  5
202C
  8
0
  0
BLOCK
  8
0
  2
*U44
 70
     1
 10
0.0
 20
0.0
 30
0.0
  3
*U44
  1

  0
TEXT
  5
216E
  8
标注
 10
407.91122062379878
 20
168.76315271744031
 30
0.0
 40
0.65
  1
45"
  0
ENDBLK
  5
2170
  8
0
  0
BLOCK
  8
0
  2
*D45
 70
     1
 10
0.0
 20
0.0
 30
0.0
  3
*D45
  1

  0
LINE
  5
203B
  8
标注
  6
CONTINUOUS
 10
427.79725679962252
 20
154.27781402345519
 30
0.0
 11
429.26891934280872
 21
153.57411992800161
 31
0.0
  0
LINE
  5
203C
  8
标注
  6
CONTINUOUS
 10
430.60124888289448
 20
160.14191057762929
 30
0.0
 11
432.07291142608068
 21
159.43821648217559
 31
0.0
  0
LINE
  5
203D
  8
标注
  6
CONTINUOUS
 10
429.2606245669304
 20
154.29857227059779
 30
0.0
 11
429.59494669993262
 21
154.99775301358821
 31
0.0
  0
LINE
  5
203E
  8
标注
  6
CONTINUOUS
 10
431.50381823354621
 20
158.98984951393331
 30
0.0
 11
431.16949610054422
 21
158.29066877094269
 31
0.0
  0
SOLID
  5
203F
  8
标注
 10
429.16288962436062
 20
154.3453054719858
 30
0.0
 11
429.35835950950047
 21
154.25183906920969
 31
0.0
 12
428.98022535860241
 22
153.7121626151785
 32
0.0
 13
428.98022535860241
 23
153.7121626151785
 33
0.0
  0
SOLID
  5
2040
  8
标注
 10
431.40608329097643
 20
159.03658271532129
 30
0.0
 11
431.60155317611628
 21
158.9431163125453
 31
0.0
 12
431.78421744187438
 22
159.57625916935251
 32
0.0
 13
431.78421744187438
 23
159.57625916935251
 33
0.0
  0
INSERT
  5
2041
  8
标注
  2
*U46
 10
0.0
 20
0.0
 30
0.0
  0
POINT
  5
2042
  8
DEFPOINTS
 62
     0
 10
427.00334834305482
 20
154.65743141319169
 30
0.0
  0
POINT
  5
2043
  8
DEFPOINTS
 62
     0
 10
429.80734042632679
 20
160.52152796736581
 30
0.0
  0
POINT
  5
2044
  8
DEFPOINTS
 62
     0
 10
431.78421744187438
 20
159.57625916935251
 30
0.0
  0
ENDBLK
  5
203A
  8
0
  0
BLOCK
  8
0
  2
*U46
 70
     1
 10
0.0
 20
0.0
 30
0.0
  3
*U46
  1

  0
TEXT
  5
2172
  8
标注
 10
429.97442820712791
 20
155.03798714955309
 30
0.0
 40
0.65
  1
6 1/2"
 50
64.444613902514533
  0
ENDBLK
  5
2174
  8
0
  0
BLOCK
  8
0
  2
*D47
 70
     1
 10
0.0
 20
0.0
 30
0.0
  3
*D47
  1

  0
LINE
  5
2049
  8
标注
  6
CONTINUOUS
 10
428.25652858161072
 20
152.93173736406479
 30
0.0
 11
430.2547519633992
 21
151.96413687124561
 31
0.0
  0
LINE
  5
204A
  8
标注
  6
CONTINUOUS
 10
431.96158244638002
 20
160.58316511581859
 30
0.0
 11
433.95980582816838
 21
159.6155646229993
 31
0.0
  0
LINE
  5
204B
  8
标注
  6
CONTINUOUS
 10
430.25002657311433
 20
152.688621288391
 30
0.0
 11
431.02389149986271
 21
154.286755024835
 31
0.0
  0
LINE
  5
204C
  8
标注
  6
CONTINUOUS
 10
433.3885104955292
 20
159.17000694670531
 30
0.0
 11
432.61464556878087
 21
157.5718732102614
 31
0.0
  0
SOLID
  5
204D
  8
标注
 10
430.1525230653279
 20
152.7358354502538
 30
0.0
 11
430.34753008090098
 21
152.64140712652821
 31
0.0
 12
429.9667416019372
 22
152.1036002416713
 32
0.0
 13
429.9667416019372
 23
152.1036002416713
 33
0.0
  0
SOLID
  5
204E
  8
标注
 10
433.29100698774249
 20
159.2172211085682
 30
0.0
 11
433.4860140033158
 21
159.1227927848424
 31
0.0
 12
433.67179546670633
 22
159.75502799342499
 32
0.0
 13
433.67179546670633
 23
159.75502799342499
 33
0.0
  0
INSERT
  5
204F
  8
标注
  2
*U48
 10
0.0
 20
0.0
 30
0.0
  0
POINT
  5
2050
  8
DEFPOINTS
 62
     0
 10
427.4645000875903
 20
153.31526163273551
 30
0.0
  0
POINT
  5
2051
  8
DEFPOINTS
 62
     0
 10
431.16955395235942
 20
160.96668938448931
 30
0.0
  0
POINT
  5
2052
  8
DEFPOINTS
 62
     0
 10
433.67179546670633
 20
159.75502799342499
 30
0.0
  0
ENDBLK
  5
2048
  8
0
  0
BLOCK
  8
0
  2
*U48
 70
     1
 10
0.0
 20
0.0
 30
0.0
  3
*U48
  1

  0
TEXT
  5
2176
  8
标注
 10
431.40356662973841
 20
154.32511901516011
 30
0.0
 40
0.65
  1
8 1/2"
 50
64.162323712976033
  0
ENDBLK
  5
2178
  8
0
  0
BLOCK
  8
0
  2
*D49
 70
     1
 10
0.0
 20
0.0
 30
0.0
  3
*D49
  1

  0
LINE
  5
2087
  8
标注
  6
CONTINUOUS
 10
389.82882234203697
 20
121.7257813405419
 30
0.0
 11
389.82882234203697
 21
120.8815792000271
 31
0.0
  0
LINE
  5
2088
  8
标注
  6
CONTINUOUS
 10
426.56978920451189
 20
121.7257813405419
 30
0.0
 11
426.56978920451189
 21
120.8815792000271
 31
0.0
  0
LINE
  5
2089
  8
标注
  6
CONTINUOUS
 10
390.47882234203701
 20
121.201579200027
 30
0.0
 11
405.94097243994122
 21
121.201579200027
 31
0.0
  0
LINE
  5
208A
  8
标注
  6
CONTINUOUS
 10
425.91978920451203
 20
121.201579200027
 30
0.0
 11
410.45763910660759
 21
121.201579200027
 31
0.0
  0
SOLID
  5
208B
  8
标注
 10
390.47882234203701
 20
121.3099125333604
 30
0.0
 11
390.47882234203701
 21
121.09324586669381
 31
0.0
 12
389.82882234203697
 22
121.201579200027
 32
0.0
 13
389.82882234203697
 23
121.201579200027
 33
0.0
  0
SOLID
  5
208C
  8
标注
 10
425.91978920451203
 20
121.3099125333604
 30
0.0
 11
425.91978920451203
 21
121.09324586669381
 31
0.0
 12
426.56978920451189
 22
121.201579200027
 32
0.0
 13
426.56978920451189
 23
121.201579200027
 33
0.0
  0
INSERT
  5
208D
  8
标注
  2
*U50
 10
0.0
 20
0.0
 30
0.0
  0
POINT
  5
208E
  8
DEFPOINTS
 62
     0
 10
389.82882234203697
 20
122.6057813405419
 30
0.0
  0
POINT
  5
208F
  8
DEFPOINTS
 62
     0
 10
426.56978920451189
 20
122.6057813405419
 30
0.0
  0
POINT
  5
2090
  8
DEFPOINTS
 62
     0
 10
426.56978920451189
 20
121.201579200027
 30
0.0
  0
ENDBLK
  5
2056
  8
0
  0
BLOCK
  8
0
  2
*U50
 70
     1
 10
0.0
 20
0.0
 30
0.0
  3
*U50
  1

  0
TEXT
  5
217A
  8
标注
 10
406.14097243994098
 20
120.87657920002709
 30
0.0
 40
0.65
  1
36 3/4"
  0
ENDBLK
  5
217C
  8
0
  0
BLOCK
  8
0
  2
*D51
 70
     1
 10
0.0
 20
0.0
 30
0.0
  3
*D51
  1

  0
LINE
  5
2091
  8
标注
  6
CONTINUOUS
 10
429.4712843795545
 20
129.47775374437629
 30
0.0
 11
429.4712843795545
 21
135.5535375343583
 31
0.0
  0
LINE
  5
2092
  8
标注
  6
CONTINUOUS
 10
386.9273271825374
 20
129.47775375185159
 30
0.0
 11
386.9273271825374
 21
135.5535375343583
 31
0.0
  0
LINE
  5
2093
  8
标注
  6
CONTINUOUS
 10
428.82128437955453
 20
135.23353753435819
 30
0.0
 11
410.34930578104581
 21
135.23353753435819
 31
0.0
  0
LINE
  5
2094
  8
标注
  6
CONTINUOUS
 10
387.57732718253737
 20
135.23353753435819
 30
0.0
 11
406.04930578104592
 21
135.23353753435819
 31
0.0
  0
SOLID
  5
2095
  8
标注
 10
428.82128437955453
 20
135.3418708676916
 30
0.0
 11
428.82128437955453
 21
135.1252042010249
 31
0.0
 12
429.4712843795545
 22
135.23353753435819
 32
0.0
 13
429.4712843795545
 23
135.23353753435819
 33
0.0
  0
SOLID
  5
2096
  8
标注
 10
387.57732718253737
 20
135.3418708676916
 30
0.0
 11
387.57732718253737
 21
135.1252042010249
 31
0.0
 12
386.9273271825374
 22
135.23353753435819
 32
0.0
 13
386.9273271825374
 23
135.23353753435819
 33
0.0
  0
INSERT
  5
2097
  8
标注
  2
*U52
 10
0.0
 20
0.0
 30
0.0
  0
POINT
  5
2098
  8
DEFPOINTS
 62
     0
 10
429.4712843795545
 20
128.59775374437629
 30
0.0
  0
POINT
  5
2099
  8
DEFPOINTS
 62
     0
 10
386.9273271825374
 20
128.5977537518516
 30
0.0
  0
POINT
  5
209A
  8
DEFPOINTS
 62
     0
 10
386.9273271825374
 20
135.23353753435819
 30
0.0
  0
ENDBLK
  5
2064
  8
0
  0
BLOCK
  8
0
  2
*U52
 70
     1
 10
0.0
 20
0.0
 30
0.0
  3
*U52
  1

  0
TEXT
  5
217E
  8
标注
 10
406.24930578104579
 20
134.9085375343582
 30
0.0
 40
0.65
  1
42 1/2"
  0
ENDBLK
  5
2180
  8
0
  0
BLOCK
  8
0
  2
*D53
 70
     1
 10
0.0
 20
0.0
 30
0.0
  3
*D53
  1

  0
LINE
  5
209B
  8
标注
  6
CONTINUOUS
 10
427.3629951326451
 20
122.22469824276369
 30
0.0
 11
428.54535558078078
 21
121.6566520818598
 31
0.0
  0
LINE
  5
209C
  8
标注
  6
CONTINUOUS
 10
430.24601020993907
 20
128.22555386574189
 30
0.0
 11
431.4283706580747
 21
127.6575077048381
 31
0.0
  0
LINE
  5
209D
  8
标注
  6
CONTINUOUS
 10
428.53839889492968
 20
122.3811185093234
 30
0.0
 11
428.8611965617697
 21
123.0530061485517
 31
0.0
  0
LINE
  5
209E
  8
标注
  6
CONTINUOUS
 10
430.85845029479822
 20
127.21019262626081
 30
0.0
 11
430.53565262795792
 21
126.5383049870326
 31
0.0
  0
SOLID
  5
209F
  8
标注
 10
428.44075043609269
 20
122.4280321491089
 30
0.0
 11
428.63604735376612
 21
122.334204869538
 31
0.0
 12
428.25691705621682
 22
121.79522775630301
 32
0.0
 13
428.25691705621682
 23
121.79522775630301
 33
0.0
  0
SOLID
  5
20A0
  8
标注
 10
430.76080183596139
 20
127.25710626604619
 30
0.0
 11
430.95609875363482
 21
127.16327898647531
 31
0.0
 12
431.1399321335108
 22
127.7960833792812
 32
0.0
 13
431.1399321335108
 23
127.7960833792812
 33
0.0
  0
INSERT
  5
20A1
  8
标注
  2
*U54
 10
0.0
 20
0.0
 30
0.0
  0
POINT
  5
20A2
  8
DEFPOINTS
 62
     0
 10
426.56978919009418
 20
122.60578134748241
 30
0.0
  0
POINT
  5
20A3
  8
DEFPOINTS
 62
     0
 10
429.4528042673881
 20
128.60663697046061
 30
0.0
  0
POINT
  5
20A4
  8
DEFPOINTS
 62
     0
 10
431.1399321335108
 20
127.7960833792812
 30
0.0
  0
ENDBLK
  5
207C
  8
0
  0
BLOCK
  8
0
  2
*U54
 70
     1
 10
0.0
 20
0.0
 30
0.0
  3
*U54
  1

  0
TEXT
  5
2182
  8
标注
 10
429.24075173480702
 20
123.0925393070477
 30
0.0
 40
0.65
  1
6 5/8"
 50
64.338787556763052
  0
ENDBLK
  5
2184
  8
0
  0
BLOCK
  8
0
  2
A$C344374B2
 70
     0
 10
0.0
 20
0.0
 30
0.0
  3
A$C344374B2
  1

  0
ARC
  5
2347
  8
0
 10
620.87383760674845
 20
108.93795391084861
 30
0.0
 40
815.19157907631597
 50
76.985734667364511
 51
100.25322069941831
  0
ARC
  5
2348
  8
0
 10
243.76053877276721
 20
100.43227324789039
 30
0.0
 40
817.37937356718339
 50
52.943152175943091
 51
73.546175158973895
  0
ARC
  5
2349
  8
0
 10
217.32610479003051
 20
108.93795385028351
 30
0.0
 40
815.19157913672916
 50
79.74677930222262
 51
103.01426533101071
  0
ARC
  5
234A
  8
0
 10
594.43940358088003
 20
100.4322733686131
 30
0.0
 40
817.37937343789406
 50
106.4538248410261
 51
127.0568478263925
  0
CIRCLE
  5
234B
  8
0
 10
419.09997120071779
 20
898.66513888919144
 30
0.0
 40
45.499999999999993
  0
CIRCLE
  5
234C
  8
0
 10
419.09997120071779
 20
898.66513888919144
 30
0.0
 40
55.0
  0
CIRCLE
  5
234D
  8
0
 10
419.09997120071779
 20
898.66513888919144
 30
0.0
 40
58.0
  0
LINE
  5
234E
  8
虚线
 10
33.78287577469019
 20
1280.5508102420431
 30
0.0
 11
359.24586923513561
 21
1275.550810241868
 31
0.0
  0
LINE
  5
234F
  8
0
 10
359.24586923560128
 20
1274.050810241868
 30
0.0
 11
478.9540599091269
 21
1274.05081024181
 31
0.0
  0
LINE
  5
2350
  8
虚线
 10
478.95405990976718
 20
1275.55081024181
 30
0.0
 11
359.24586923513561
 21
1275.550810241868
 31
0.0
  0
ARC
  5
2351
  8
虚线
 10
359.24586923472822
 20
1272.550810241868
 30
0.0
 40
3.0
 50
26.565051065216899
 51
89.999999991662364
  0
ARC
  5
2352
  8
虚线
 10
478.95407316676568
 20
1272.550810241868
 30
0.0
 40
3.0
 50
90.000000005002576
 51
153.4349486752653
  0
ARC
  5
2353
  8
虚线
 10
365.02702218375629
 20
1271.050810241868
 30
0.0
 40
1.5
 50
206.5650516468946
 51
269.99999994830671
  0
ARC
  5
2354
  8
虚线
 10
473.1729202177375
 20
1271.050810241868
 30
0.0
 40
1.5
 50
270.00000005002579
 51
333.43494777291932
  0
LINE
  5
2355
  8
虚线
 10
474.51456100394711
 20
1270.3799898491411
 30
0.0
 11
476.27079159376439
 21
1273.8924510287179
 31
0.0
  0
LINE
  5
2356
  8
虚线
 10
365.02702218375629
 20
1269.550810241868
 30
0.0
 11
374.09997120074689
 21
1269.550810241868
 31
0.0
  0
LINE
  5
2357
  8
虚线
 10
464.09997120074689
 20
1268.050810241868
 30
0.0
 11
464.09997120074689
 21
1269.550810241868
 31
0.0
  0
LINE
  5
2358
  8
虚线
 10
363.68538139754668
 20
1270.3799898491411
 30
0.0
 11
361.9291508077294
 21
1273.8924510287179
 31
0.0
  0
LINE
  5
2359
  8
虚线
 10
374.09997120074689
 20
1268.050810241868
 30
0.0
 11
374.09997120074689
 21
1269.550810241868
 31
0.0
  0
LINE
  5
235A
  8
虚线
 10
464.09997120074689
 20
1269.550810241868
 30
0.0
 11
473.1729202177375
 21
1269.550810241868
 31
0.0
  0
LINE
  5
235B
  8
虚线
 10
374.09997120074689
 20
1269.550810241868
 30
0.0
 11
464.09997120074689
 21
1269.550810241868
 31
0.0
  0
LINE
  5
235C
  8
0
 10
362.34374061104609
 20
1269.709169455891
 30
0.0
 11
360.58751002125791
 21
1273.221630635468
 31
0.0
  0
ARC
  5
235D
  8
0
 10
359.24586923472822
 20
1272.550810241868
 30
0.0
 40
1.5
 50
26.565051065216899
 51
89.999999991662364
  0
LINE
  5
235E
  8
0
 10
32.28287577489391
 20
1279.0508102420431
 30
0.0
 11
359.24586923513561
 21
1274.050810241868
 31
0.0
  0
ARC
  5
235F
  8
0
 10
365.02702218375629
 20
1271.050810241868
 30
0.0
 40
3.0
 50
206.5650516468946
 51
269.99999994830671
  0
LINE
  5
2360
  8
0
 10
365.02702218375629
 20
1268.050810241868
 30
0.0
 11
374.09997120074689
 21
1268.050810241868
 31
0.0
  0
LINE
  5
2361
  8
0
  6
CONTINUOUS
 10
374.09997120074689
 20
1268.050810241868
 30
0.0
 11
464.09997120074689
 21
1268.050810241868
 31
0.0
  0
LINE
  5
2362
  8
0
 10
464.09997120074689
 20
1268.050810241868
 30
0.0
 11
473.1729202177375
 21
1268.050810241868
 31
0.0
  0
ARC
  5
2363
  8
0
 10
473.1729202177375
 20
1271.050810241868
 30
0.0
 40
3.0
 50
270.00000005002579
 51
333.43494777291932
  0
LINE
  5
2364
  8
0
 10
475.85620179044781
 20
1269.709169455891
 30
0.0
 11
477.61243238026498
 21
1273.221630635468
 31
0.0
  0
ARC
  5
2365
  8
0
 10
478.95407316676568
 20
1272.550810241868
 30
0.0
 40
1.5
 50
90.000000005002576
 51
153.4349486752653
  0
LINE
  5
2366
  8
0
 10
804.41706662654167
 20
1429.150810242048
 30
0.0
 11
33.782875774952117
 21
1429.150810242048
 31
0.0
  0
LINE
  5
2367
  8
0
 10
102.1240898979013
 20
1427.6508102420189
 30
0.0
 11
102.12408989784301
 21
1277.9827809004639
 31
0.0
  0
LINE
  5
2368
  8
0
 10
805.91706662657089
 20
1427.6508102420769
 30
0.0
 11
32.282875774952117
 21
1427.6508102420189
 31
0.0
  0
LINE
  5
2369
  8
0
 10
-0.0000287992297672
 20
1429.1508102421069
 30
0.0
 11
33.782875774952117
 21
1429.150810242048
 31
0.0
  0
LINE
  5
236A
  8
虚线
 10
33.782875774923014
 20
1429.150810242048
 30
0.0
 11
33.78287577469019
 21
1280.5508102420431
 31
0.0
  0
LINE
  5
236B
  8
0
 10
-0.0000287992297672
 20
1427.6508102421069
 30
0.0
 11
32.282875774952117
 21
1427.6508102420189
 31
0.0
  0
LINE
  5
236C
  8
0
 10
32.282875774923014
 20
1427.6508102420769
 30
0.0
 11
32.28287577489391
 21
1279.0508102420431
 31
0.0
  0
LINE
  5
236D
  8
0
 10
-0.000028799258871
 20
1429.1508102421069
 30
0.0
 11
-0.000028799258871
 21
1427.6508102421069
 31
0.0
  0
ARC
  5
236E
  8
0
 10
419.0999712008051
 20
-9.3848611108260211
 30
0.0
 40
1016.0
 50
65.638022059549414
 51
114.3619779404506
  0
LINE
  5
236F
  8
0
 10
749.14122120552918
 20
719.47231508343248
 30
0.0
 11
838.19997120843607
 21
916.1480610446597
 31
0.0
  0
LINE
  5
2370
  8
0
 10
736.31916767545044
 20
752.732079645677
 30
0.0
 11
804.44979914545547
 21
903.19054404957569
 31
0.0
  0
LINE
  5
2371
  8
0
 10
89.058721196139217
 20
719.47231508346147
 30
0.0
 11
-0.0000288065348286
 21
916.1480610447469
 31
0.0
  0
LINE
  5
2372
  8
0
 10
101.8807747262472
 20
752.732079645677
 30
0.0
 11
33.750143256329473
 21
903.19054404966289
 31
0.0
  0
ARC
  5
2373
  8
0
 10
419.0999712008051
 20
-9.3848611108260211
 30
0.0
 40
990.60000000000002
 50
67.107305641854467
 51
112.8926943581455
  0
ARC
  5
2374
  8
0
 10
419.0999712008051
 20
-9.3848611108260211
 30
0.0
 40
825.5
 50
67.401247417162423
 51
112.59875258283761
  0
ARC
  5
2375
  8
0
 10
419.0999712008051
 20
-9.3848611108260211
 30
0.0
 40
800.10000000000014
 50
65.638022059549414
 51
114.3619779404506
  0
LINE
  5
2376
  8
0
 10
838.19997120072367
 20
1429.1508102421069
 30
0.0
 11
804.41706662654167
 21
1429.150810242048
 31
0.0
  0
LINE
  5
2377
  8
0
 10
838.19997120072367
 20
1427.6508102421069
 30
0.0
 11
805.91706662654167
 21
1427.6508102420189
 31
0.0
  0
LINE
  5
2378
  8
0
 10
838.19997120075266
 20
1429.1508102421069
 30
0.0
 11
838.19997120075266
 21
1427.6508102421069
 31
0.0
  0
LINE
  5
2379
  8
虚线
 10
804.41706662680372
 20
1280.5508102420431
 30
0.0
 11
478.95407316635823
 21
1275.550810241868
 31
0.0
  0
LINE
  5
237A
  8
0
 10
805.91706662659999
 20
1279.0508102420431
 30
0.0
 11
478.95407316635823
 21
1274.050810241868
 31
0.0
  0
LINE
  5
237B
  8
0
 10
736.07585250359261
 20
1427.6508102420189
 30
0.0
 11
736.07585250365082
 21
1277.9827809004639
 31
0.0
  0
LINE
  5
237C
  8
虚线
 10
804.41706662657077
 20
1429.150810242048
 30
0.0
 11
804.41706662680372
 21
1280.5508102420431
 31
0.0
  0
LINE
  5
237D
  8
0
 10
805.91706662657089
 20
1427.6508102420769
 30
0.0
 11
805.91706662659999
 21
1279.0508102420431
 31
0.0
  0
LINE
  5
237E
  8
0
 10
725.4241292561054
 20
-0.0000485189666506
 30
0.0
 11
795.20125428805466
 21
154.0945027320995
 31
0.0
  0
ARC
  5
237F
  8
0
 10
407.18395414066612
 20
-759.52321534304065
 30
0.0
 40
823.49999999999989
 50
67.266318028022354
 51
112.7336819719776
  0
ARC
  5
2380
  8
0
 10
407.18395414066612
 20
-759.52321534304065
 30
0.0
 40
992.60000000000002
 50
66.988863744145092
 51
113.01113625585489
  0
LINE
  5
2381
  8
0
 10
88.943779025255935
 20
-0.0000485189375468
 30
0.0
 11
19.166653993481301
 21
154.09450273215771
 31
0.0
  0
ENDBLK
  5
2385
  8
0
  0
BLOCK
  8
0
  2
*D58
 70
     1
 10
0.0
 20
0.0
 30
0.0
  3
*D58
  1

  0
LINE
  5
25BA
  8
标注
 10
473.70464891652858
 20
125.5882059621246
 30
0.0
 11
473.70464891652858
 21
124.24351861174689
 31
0.0
  0
LINE
  5
25BB
  8
标注
 10
498.7629304116407
 20
125.58820596628701
 30
0.0
 11
498.7629304116407
 21
124.24351861174689
 31
0.0
  0
LINE
  5
25BC
  8
标注
 10
474.3546489165285
 20
124.5635186117469
 30
0.0
 11
485.2754563307513
 21
124.5635186117469
 31
0.0
  0
LINE
  5
25BD
  8
标注
 10
498.11293041164072
 20
124.5635186117469
 30
0.0
 11
487.19212299741793
 21
124.5635186117469
 31
0.0
  0
SOLID
  5
25BE
  8
标注
 10
474.3546489165285
 20
124.67185194508021
 30
0.0
 11
474.3546489165285
 21
124.45518527841359
 31
0.0
 12
473.70464891652858
 22
124.5635186117469
 32
0.0
 13
473.70464891652858
 23
124.5635186117469
 33
0.0
  0
SOLID
  5
25BF
  8
标注
 10
498.11293041164072
 20
124.67185194508021
 30
0.0
 11
498.11293041164072
 21
124.45518527841359
 31
0.0
 12
498.7629304116407
 22
124.5635186117469
 32
0.0
 13
498.7629304116407
 23
124.5635186117469
 33
0.0
  0
TEXT
  8
标注
  40
0.65
  5
25E8
  72
0
  71
0
 10
484.934
 20
123.413
 30
0.000000
  1
25"
  0
POINT
  5
25C1
  8
DEFPOINTS
 62
     0
 10
473.70464891652858
 20
126.4682059621246
 30
0.0
  0
POINT
  5
25C2
  8
DEFPOINTS
 62
     0
 10
498.7629304116407
 20
126.468205966287
 30
0.0
  0
POINT
  5
25C3
  8
DEFPOINTS
 62
     0
 10
498.7629304116407
 20
124.5635186117469
 30
0.0
  0
ENDBLK
  5
2417
  8
0
  0
BLOCK
  8
0
  2
*D59
 70
     1
 10
0.0
 20
0.0
 30
0.0
  3
*D59
  1

  0
LINE
  5
2430
  8
标注
 10
470.95751800682649
 20
133.41492057714069
 30
0.0
 11
470.95751800682649
 21
137.9530750221455
 31
0.0
  0
LINE
  5
2431
  8
标注
 10
501.51006133130358
 20
133.41492057714069
 30
0.0
 11
501.51006133130358
 21
137.9530750221455
 31
0.0
  0
LINE
  5
2432
  8
标注
 10
471.60751800682652
 20
137.63307502214559
 30
0.0
 11
484.1379563357317
 21
137.63307502214559
 31
0.0
  0
LINE
  5
2433
  8
标注
 10
500.8600613313036
 20
137.63307502214559
 30
0.0
 11
488.32962300239842
 21
137.63307502214559
 31
0.0
  0
SOLID
  5
2434
  8
标注
 10
471.60751800682652
 20
137.74140835547891
 30
0.0
 11
471.60751800682652
 21
137.5247416888123
 31
0.0
 12
470.95751800682649
 22
137.63307502214559
 32
0.0
 13
470.95751800682649
 23
137.63307502214559
 33
0.0
  0
SOLID
  5
2435
  8
标注
 10
500.8600613313036
 20
137.74140835547891
 30
0.0
 11
500.8600613313036
 21
137.5247416888123
 31
0.0
 12
501.51006133130358
 22
137.63307502214559
 32
0.0
 13
501.51006133130358
 23
137.63307502214559
 33
0.0
  0
INSERT
  5
2436
  8
标注
  2
*U69
 10
0.0
 20
0.0
 30
0.0
  0
POINT
  5
2437
  8
DEFPOINTS
 62
     0
 10
470.95751800682649
 20
132.5349205771407
 30
0.0
  0
POINT
  5
2438
  8
DEFPOINTS
 62
     0
 10
501.51006133130358
 20
132.5349205771407
 30
0.0
  0
POINT
  5
2439
  8
DEFPOINTS
 62
     0
 10
501.51006133130358
 20
137.63307502214559
 30
0.0
  0
ENDBLK
  5
242F
  8
0
  0
BLOCK
  8
0
  2
*D60
 70
     1
 10
0.0
 20
0.0
 30
0.0
  3
*D60
  1

  0
LINE
  5
243E
  8
标注
 10
499.56457310988031
 20
126.10520596173561
 30
0.0
 11
500.75935054745418
 21
125.56418660656701
 31
0.0
  0
LINE
  5
243F
  8
标注
 10
502.3117040196114
 20
132.17192057675169
 30
0.0
 11
503.50648145718532
 21
131.630901221583
 31
0.0
  0
LINE
  5
2440
  8
标注
 10
500.73596911562942
 20
126.28830904693589
 30
0.0
 11
501.04390956935322
 21
126.96835922020649
 31
0.0
  0
LINE
  5
2441
  8
标注
 10
502.9468500247861
 20
131.17077878149709
 30
0.0
 11
502.63890957106241
 21
130.49072860822631
 31
0.0
  0
SOLID
  5
2442
  8
标注
 10
500.63728204225828
 20
126.33299654698379
 30
0.0
 11
500.83465618900073
 21
126.24362154688799
 31
0.0
 12
500.46784411534219
 22
125.69618660670839
 32
0.0
 13
500.46784411534219
 23
125.69618660670839
 33
0.0
  0
SOLID
  5
2443
  8
标注
 10
502.84816295141479
 20
131.21546628154499
 30
0.0
 11
503.0455370981573
 21
131.12609128144919
 31
0.0
 12
503.21497502507327
 22
131.76290122172449
 32
0.0
 13
503.21497502507327
 23
131.76290122172449
 33
0.0
  0
INSERT
  5
2444
  8
标注
  2
*U70
 10
0.0
 20
0.0
 30
0.0
  0
POINT
  5
2445
  8
DEFPOINTS
 62
     0
 10
498.76293042157238
 20
126.4682059621246
 30
0.0
  0
POINT
  5
2446
  8
DEFPOINTS
 62
     0
 10
501.51006133130358
 20
132.5349205771407
 30
0.0
  0
POINT
  5
2447
  8
DEFPOINTS
 62
     0
 10
503.21497502507327
 20
131.76290122172449
 30
0.0
  0
ENDBLK
  5
243D
  8
0
  0
BLOCK
  8
0
  2
*D61
 70
     1
 10
0.0
 20
0.0
 30
0.0
  3
*D61
  1

  0
LINE
  5
24BE
  8
标注
 10
474.21397945319842
 20
152.0288653675029
 30
0.0
 11
474.21397945319842
 21
150.52279925961281
 31
0.0
  0
LINE
  5
24BF
  8
标注
 10
499.19186894179637
 20
152.02886536883531
 30
0.0
 11
499.19186894179637
 21
150.52279925961281
 31
0.0
  0
LINE
  5
24C0
  8
标注
 10
474.8639794531984
 20
150.8427992596128
 30
0.0
 11
485.74459086416408
 21
150.8427992596128
 31
0.0
  0
LINE
  5
24C1
  8
标注
 10
498.54186894179651
 20
150.8427992596128
 30
0.0
 11
487.66125753083071
 21
150.8427992596128
 31
0.0
  0
SOLID
  5
24C2
  8
标注
 10
474.8639794531984
 20
150.9511325929461
 30
0.0
 11
474.8639794531984
 21
150.73446592627951
 31
0.0
 12
474.21397945319842
 22
150.8427992596128
 32
0.0
 13
474.21397945319842
 23
150.8427992596128
 33
0.0
  0
SOLID
  5
24C3
  8
标注
 10
498.54186894179651
 20
150.9511325929461
 30
0.0
 11
498.54186894179651
 21
150.73446592627951
 31
0.0
 12
499.19186894179637
 22
150.8427992596128
 32
0.0
 13
499.19186894179637
 23
150.8427992596128
 33
0.0
  0
INSERT
  5
24C4
  8
标注
  2
*U72
 10
0.0
 20
0.0
 30
0.0
  0
POINT
  5
24C5
  8
DEFPOINTS
 62
     0
 10
474.21397945319842
 20
152.90886536750281
 30
0.0
  0
POINT
  5
24C6
  8
DEFPOINTS
 62
     0
 10
499.19186894179637
 20
152.90886536883531
 30
0.0
  0
POINT
  5
24C7
  8
DEFPOINTS
 62
     0
 10
499.19186894179637
 20
150.8427992596128
 30
0.0
  0
ENDBLK
  5
2455
  8
0
  0
BLOCK
  8
0
  2
*D62
 70
     1
 10
0.0
 20
0.0
 30
0.0
  3
*D62
  1

  0
LINE
  5
24C8
  8
标注
 10
473.70917419886138
 20
150.71942581897241
 30
0.0
 11
473.70917419886138
 21
148.7750287273708
 31
0.0
  0
LINE
  5
24C9
  8
标注
 10
499.69667419728961
 20
150.71942581992019
 30
0.0
 11
499.69667419728961
 21
148.7750287273708
 31
0.0
  0
LINE
  5
24CA
  8
标注
 10
474.35917419886141
 20
149.09502872737079
 30
0.0
 11
485.74459086474229
 21
149.09502872737079
 31
0.0
  0
LINE
  5
24CB
  8
标注
 10
499.04667419728958
 20
149.09502872737079
 30
0.0
 11
487.66125753140892
 21
149.09502872737079
 31
0.0
  0
SOLID
  5
24CC
  8
标注
 10
474.35917419886141
 20
149.20336206070411
 30
0.0
 11
474.35917419886141
 21
148.98669539403741
 31
0.0
 12
473.70917419886138
 22
149.09502872737079
 32
0.0
 13
473.70917419886138
 23
149.09502872737079
 33
0.0
  0
SOLID
  5
24CD
  8
标注
 10
499.04667419728958
 20
149.20336206070411
 30
0.0
 11
499.04667419728958
 21
148.98669539403741
 31
0.0
 12
499.69667419728961
 22
149.09502872737079
 32
0.0
 13
499.69667419728961
 23
149.09502872737079
 33
0.0
  0
INSERT
  5
24CE
  8
标注
  2
*U73
 10
0.0
 20
0.0
 30
0.0
  0
POINT
  5
24CF
  8
DEFPOINTS
 62
     0
 10
473.70917419886138
 20
151.59942581897241
 30
0.0
  0
POINT
  5
24D0
  8
DEFPOINTS
 62
     0
 10
499.69667419728961
 20
151.59942581992021
 30
0.0
  0
POINT
  5
24D1
  8
DEFPOINTS
 62
     0
 10
499.69667419728961
 20
149.09502872737079
 30
0.0
  0
ENDBLK
  5
2463
  8
0
  0
BLOCK
  8
0
  2
*D63
 70
     1
 10
0.0
 20
0.0
 30
0.0
  3
*D63
  1

  0
LINE
  5
24D2
  8
标注
 10
501.81571215783612
 20
159.73705879102079
 30
0.0
 11
501.81571215783612
 21
164.7863791885249
 31
0.0
  0
LINE
  5
24D3
  8
标注
 10
471.53167113036659
 20
159.71242695932619
 30
0.0
 11
471.53167113036659
 21
164.7863791885249
 31
0.0
  0
LINE
  5
24D4
  8
标注
 10
501.16571215783608
 20
164.46637918852491
 30
0.0
 11
488.76952497743468
 21
164.46637918852491
 31
0.0
  0
LINE
  5
24D5
  8
标注
 10
472.18167113036662
 20
164.46637918852491
 30
0.0
 11
484.57785831076802
 21
164.46637918852491
 31
0.0
  0
SOLID
  5
24D6
  8
标注
 10
501.16571215783608
 20
164.5747125218582
 30
0.0
 11
501.16571215783608
 21
164.35804585519159
 31
0.0
 12
501.81571215783612
 22
164.46637918852491
 32
0.0
 13
501.81571215783612
 23
164.46637918852491
 33
0.0
  0
SOLID
  5
24D7
  8
标注
 10
472.18167113036662
 20
164.5747125218582
 30
0.0
 11
472.18167113036662
 21
164.35804585519159
 31
0.0
 12
471.53167113036659
 22
164.46637918852491
 32
0.0
 13
471.53167113036659
 23
164.46637918852491
 33
0.0
  0
INSERT
  5
24D8
  8
标注
  2
*U74
 10
0.0
 20
0.0
 30
0.0
  0
POINT
  5
24D9
  8
DEFPOINTS
 62
     0
 10
501.81571215783612
 20
158.85705879102079
 30
0.0
  0
POINT
  5
24DA
  8
DEFPOINTS
 62
     0
 10
471.53167113036659
 20
158.8324269593262
 30
0.0
  0
POINT
  5
24DB
  8
DEFPOINTS
 62
     0
 10
471.53167113036659
 20
164.46637918852491
 30
0.0
  0
ENDBLK
  5
2471
  8
0
  0
BLOCK
  8
0
  2
*D64
 70
     1
 10
0.0
 20
0.0
 30
0.0
  3
*D64
  1

  0
LINE
  5
24DC
  8
标注
 10
470.2029241987683
 20
160.22256542371929
 30
0.0
 11
470.2029241987683
 21
166.36472178692921
 31
0.0
  0
LINE
  5
24DD
  8
标注
 10
503.20292419683562
 20
160.2225654247643
 30
0.0
 11
503.20292419683562
 21
166.36472178692921
 31
0.0
  0
LINE
  5
24DE
  8
标注
 10
470.85292419876828
 20
166.04472178692919
 30
0.0
 11
485.74459086446859
 21
166.04472178692919
 31
0.0
  0
LINE
  5
24DF
  8
标注
 10
502.55292419683559
 20
166.04472178692919
 30
0.0
 11
487.66125753113522
 21
166.04472178692919
 31
0.0
  0
SOLID
  5
24E0
  8
标注
 10
470.85292419876828
 20
166.15305512026251
 30
0.0
 11
470.85292419876828
 21
165.93638845359581
 31
0.0
 12
470.2029241987683
 22
166.04472178692919
 32
0.0
 13
470.2029241987683
 23
166.04472178692919
 33
0.0
  0
SOLID
  5
24E1
  8
标注
 10
502.55292419683559
 20
166.15305512026251
 30
0.0
 11
502.55292419683559
 21
165.93638845359581
 31
0.0
 12
503.20292419683562
 22
166.04472178692919
 32
0.0
 13
503.20292419683562
 23
166.04472178692919
 33
0.0
  0
INSERT
  5
24E2
  8
标注
  2
*U75
 10
0.0
 20
0.0
 30
0.0
  0
POINT
  5
24E3
  8
DEFPOINTS
 62
     0
 10
470.2029241987683
 20
159.34256542371929
 30
0.0
  0
POINT
  5
24E4
  8
DEFPOINTS
 62
     0
 10
503.20292419683562
 20
159.3425654247643
 30
0.0
  0
POINT
  5
24E5
  8
DEFPOINTS
 62
     0
 10
503.20292419683562
 20
166.04472178692919
 30
0.0
  0
ENDBLK
  5
247F
  8
0
  0
BLOCK
  8
0
  2
*D65
 70
     1
 10
0.0
 20
0.0
 30
0.0
  3
*D65
  1

  0
LINE
  5
24E6
  8
标注
 10
499.99351163339162
 20
152.5458653678601
 30
0.0
 11
501.58508150003831
 21
151.8251703884049
 31
0.0
  0
LINE
  5
24E7
  8
标注
 10
502.67581995625238
 20
158.46942695968349
 30
0.0
 11
504.26738982289919
 21
157.7487319802282
 31
0.0
  0
LINE
  5
24E8
  8
标注
 10
501.5617000675395
 20
152.54929282875199
 30
0.0
 11
501.88191672997488
 21
153.25645356284721
 31
0.0
  0
LINE
  5
24E9
  8
标注
 10
503.70775839092818
 20
157.28860953962121
 30
0.0
 11
503.38754172849292
 21
156.58144880552601
 31
0.0
  0
SOLID
  5
24EA
  8
标注
 10
501.4630129941267
 20
152.593980328708
 30
0.0
 11
501.66038714095242
 21
152.50460532879589
 31
0.0
 12
501.29357506780337
 22
151.9571703882749
 32
0.0
 13
501.29357506780337
 23
151.9571703882749
 33
0.0
  0
SOLID
  5
24EB
  8
标注
 10
503.60907131751537
 20
157.33329703957719
 30
0.0
 11
503.8064454643411
 21
157.24392203966519
 31
0.0
 12
503.97588339066431
 22
157.88073198009829
 32
0.0
 13
503.97588339066431
 23
157.88073198009829
 33
0.0
  0
INSERT
  5
24EC
  8
标注
  2
*U76
 10
0.0
 20
0.0
 30
0.0
  0
POINT
  5
24ED
  8
DEFPOINTS
 62
     0
 10
499.19186894474569
 20
152.90886536750281
 30
0.0
  0
POINT
  5
24EE
  8
DEFPOINTS
 62
     0
 10
501.87417726760651
 20
158.8324269593262
 30
0.0
  0
POINT
  5
24EF
  8
DEFPOINTS
 62
     0
 10
503.97588339066431
 20
157.88073198009829
 30
0.0
  0
ENDBLK
  5
248D
  8
0
  0
BLOCK
  8
0
  2
*D66
 70
     1
 10
0.0
 20
0.0
 30
0.0
  3
*D66
  1

  0
LINE
  5
24F0
  8
标注
 10
500.49831688770399
 20
151.23642581921141
 30
0.0
 11
502.43124783855251
 21
150.36115564625169
 31
0.0
  0
LINE
  5
24F1
  8
标注
 10
504.00456688542789
 20
158.9795654250033
 30
0.0
 11
505.93749783627641
 21
158.10429525204361
 31
0.0
  0
LINE
  5
24F2
  8
标注
 10
502.40786640616051
 20
151.0852780866023
 30
0.0
 11
503.14005390569457
 21
152.7022278278323
 31
0.0
  0
LINE
  5
24F3
  8
标注
 10
505.37786640423752
 20
157.64417281151921
 30
0.0
 11
504.6456789047034
 21
156.02722307028901
 31
0.0
  0
SOLID
  5
24F4
  8
标注
 10
502.30917933275441
 20
151.12996558657289
 30
0.0
 11
502.50655347956678
 21
151.04059058663171
 31
0.0
 12
502.13974140633712
 22
150.49315564616481
 32
0.0
 13
502.13974140633712
 23
150.49315564616481
 33
0.0
  0
SOLID
  5
24F5
  8
标注
 10
505.2791793308312
 20
157.6888603114898
 30
0.0
 11
505.47655347764368
 21
157.59948531154859
 31
0.0
 12
505.64599140406091
 22
158.2362952519567
 32
0.0
 13
505.64599140406091
 23
158.2362952519567
 33
0.0
  0
INSERT
  5
24F6
  8
标注
  2
*U77
 10
0.0
 20
0.0
 30
0.0
  0
POINT
  5
24F7
  8
DEFPOINTS
 62
     0
 10
499.69667419911173
 20
151.59942581897241
 30
0.0
  0
POINT
  5
24F8
  8
DEFPOINTS
 62
     0
 10
503.20292419683562
 20
159.34256542476439
 30
0.0
  0
POINT
  5
24F9
  8
DEFPOINTS
 62
     0
 10
505.64599140406091
 20
158.2362952519567
 30
0.0
  0
ENDBLK
  5
249B
  8
0
  0
BLOCK
  8
0
  2
*D67
 70
     1
 10
0.0
 20
0.0
 30
0.0
  3
*D67
  1

  0
LINE
  5
24AA
  8
标注
 10
487.25997145904728
 20
176.68674370841299
 30
0.0
 11
487.8233630348679
 21
176.68674370841299
 31
0.0
  0
LINE
  5
24AB
  8
标注
 10
487.25997145904728
 20
182.7339878028998
 30
0.0
 11
487.8233630348679
 21
182.7339878028998
 31
0.0
  0
LINE
  5
24AC
  8
标注
 10
487.50336303486802
 20
177.336743708413
 30
0.0
 11
487.50336303486802
 21
179.0770324223231
 31
0.0
  0
LINE
  5
24AD
  8
标注
 10
487.50336303486802
 20
182.0839878028998
 30
0.0
 11
487.50336303486802
 21
180.34369908898969
 31
0.0
  0
SOLID
  5
24AE
  8
标注
 10
487.39502970153461
 20
177.336743708413
 30
0.0
 11
487.61169636820119
 21
177.336743708413
 31
0.0
 12
487.50336303486802
 22
176.68674370841299
 32
0.0
 13
487.50336303486802
 23
176.68674370841299
 33
0.0
  0
SOLID
  5
24AF
  8
标注
 10
487.39502970153461
 20
182.0839878028998
 30
0.0
 11
487.61169636820119
 21
182.0839878028998
 31
0.0
 12
487.50336303486802
 22
182.7339878028998
 32
0.0
 13
487.50336303486802
 23
182.7339878028998
 33
0.0
  0
INSERT
  5
24B0
  8
标注
  2
*U71
 10
0.0
 20
0.0
 30
0.0
  0
POINT
  5
24B1
  8
DEFPOINTS
 62
     0
 10
486.37997145904728
 20
176.68674370841299
 30
0.0
  0
POINT
  5
24B2
  8
DEFPOINTS
 62
     0
 10
486.37997145904728
 20
182.7339878028998
 30
0.0
  0
POINT
  5
24B3
  8
DEFPOINTS
 62
     0
 10
487.50336303486802
 20
182.7339878028998
 30
0.0
  0
ENDBLK
  5
24A9
  8
0
  0
BLOCK
  8
0
  2
*U69
 70
     1
 10
0.0
 20
0.0
 30
0.0
  3
*U69
  1

  0
TEXT
  5
25C5
  8
标注
 10
484.33795633573169
 20
137.30807502214549
 30
0.0
 40
0.65
  1
30 1/2"
  0
ENDBLK
  5
25C7
  8
0
  0
BLOCK
  8
0
  2
*U70
 70
     1
 10
0.0
 20
0.0
 30
0.0
  3
*U70
  1

  0
TEXT
  5
25C9
  8
标注
 10
501.42247078955529
 20
127.0164882401329
 30
0.0
 40
0.65
  1
6 5/8"
 50
65.638022032217364
  0
ENDBLK
  5
25CB
  8
0
  0
BLOCK
  8
0
  2
*U71
 70
     1
 10
0.0
 20
0.0
 30
0.0
  3
*U71
  1

  0
TEXT
  5
25CD
  8
标注
 10
487.82836303486778
 20
179.2770324223232
 30
0.0
 40
0.65
  1
6"
 50
90.0
  0
ENDBLK
  5
25CF
  8
0
  0
BLOCK
  8
0
  2
*U72
 70
     1
 10
0.0
 20
0.0
 30
0.0
  3
*U72
  1

  0
TEXT
  5
25D1
  8
标注
 10
485.94459086416413
 20
150.51779925961279
 30
0.0
 40
0.65
  1
25"
  0
ENDBLK
  5
25D3
  8
0
  0
BLOCK
  8
0
  2
*U73
 70
     1
 10
0.0
 20
0.0
 30
0.0
  3
*U73
  1

  0
TEXT
  5
25D5
  8
标注
 10
485.94459086474228
 20
148.77002872737069
 30
0.0
 40
0.65
  1
26"
  0
ENDBLK
  5
25D7
  8
0
  0
BLOCK
  8
0
  2
*U74
 70
     1
 10
0.0
 20
0.0
 30
0.0
  3
*U74
  1

  0
TEXT
  5
25D9
  8
标注
 10
484.77785831076812
 20
164.14137918852489
 30
0.0
 40
0.65
  1
30 1/4"
  0
ENDBLK
  5
25DB
  8
0
  0
BLOCK
  8
0
  2
*U75
 70
     1
 10
0.0
 20
0.0
 30
0.0
  3
*U75
  1

  0
TEXT
  5
25DD
  8
标注
 10
485.94459086446858
 20
165.71972178692911
 30
0.0
 40
0.65
  1
33"
  0
ENDBLK
  5
25DF
  8
0
  0
BLOCK
  8
0
  2
*U76
 70
     1
 10
0.0
 20
0.0
 30
0.0
  3
*U76
  1

  0
TEXT
  5
25E1
  8
标注
 10
502.26047795013221
 20
153.30458258312589
 30
0.0
 40
0.65
  1
6 1/2"
 50
65.638022085556955
  0
ENDBLK
  5
25E3
  8
0
  0
BLOCK
  8
0
  2
*U77
 70
     1
 10
0.0
 20
0.0
 30
0.0
  3
*U77
  1

  0
TEXT
  5
25E5
  8
标注
 10
503.51861512585901
 20
152.75035684805519
 30
0.0
 40
0.65
  1
8 1/2"
 50
65.638022077099905
  0
ENDBLK
  5
25E7
  8
0
  0
ENDSEC
  0
SECTION
  2
ENTITIES
  0
INSERT
  5
1CF1
  8
标注
  2
*U35
 10
140.89647154774971
 20
11.631285842221979
 30
0.0
  0
LINE
  5
1CF2
  8
中心线
  6
CONTINUOUS
 62
     1
 10
479.4105082584561
 20
119.7419663121743
 30
0.0
 11
485.62731326253999
 21
119.7419663121743
 31
0.0
  0
ARC
  5
23CF
  8
0
 10
494.6467772070672
 20
127.5626399461156
 30
0.0
 40
32.0941566564195
 50
76.985734668988954
 51
100.2532206807733
  0
ARC
  5
23D0
  8
0
 10
479.79979693805848
 20
127.22777062869621
 30
0.0
 40
32.180290297791878
 50
52.943152175943162
 51
73.546175144761634
  0
ARC
  5
23D1
  8
0
 10
478.75907119070217
 20
127.5626399437291
 30
0.0
 40
32.094156658797971
 50
79.74677931922669
 51
103.014265331011
  0
ARC
  5
23D2
  8
0
 10
493.60605145802299
 20
127.2277706334401
 30
0.0
 40
32.180290292701763
 50
106.4538248552383
 51
127.0568478240568
  0
CIRCLE
  5
23D3
  8
0
 10
486.70292419897208
 20
158.65426140182291
 30
0.0
 40
1.7913385826699999
  0
CIRCLE
  5
23D4
  8
0
 10
486.70292419897208
 20
158.65426140182291
 30
0.0
 40
2.1653543307000001
  0
CIRCLE
  5
23D5
  8
0
 10
486.70292419897208
 20
158.65426140182291
 30
0.0
 40
2.2834645669200002
  0
LINE
  5
23D6
  8
虚线
 10
471.5329598121815
 20
176.88359410213721
 30
0.0
 11
484.34646349168082
 21
176.68674370841299
 31
0.0
  0
LINE
  5
23D7
  8
0
 10
484.34646349170993
 20
176.627688590319
 30
0.0
 11
489.0593843843443
 21
176.627688590319
 31
0.0
  0
LINE
  5
23D8
  8
虚线
 10
489.0593843843734
 20
176.68674370841299
 30
0.0
 11
484.34646349168082
 21
176.68674370841299
 31
0.0
  0
ARC
  5
23D9
  8
虚线
 10
484.34646349165172
 20
176.56863347219601
 30
0.0
 40
0.11811023622
 50
26.565051063724699
 51
90.0
  0
ARC
  5
23DA
  8
虚线
 10
489.05938490629239
 20
176.56863347219601
 30
0.0
 40
0.11811023622
 50
90.0
 51
153.4349486715374
  0
ARC
  5
23DB
  8
虚线
 10
484.57406793846798
 20
176.50957835407289
 30
0.0
 40
0.05905511811
 50
206.56505163197971
 51
269.99999995831178
  0
ARC
  5
23DC
  8
虚线
 10
488.83178045947619
 20
176.50957835407289
 30
0.0
 40
0.05905511811
 50
270.00000004168822
 51
333.43494778112239
  0
LINE
  5
23DD
  8
虚线
 10
488.88460096286769
 20
176.48316810239169
 30
0.0
 11
488.95374389948017
 21
176.62145397561659
 31
0.0
  0
LINE
  5
23DE
  8
虚线
 10
484.57406793846798
 20
176.45052323597889
 30
0.0
 11
484.9312706556874
 21
176.45052323597889
 31
0.0
  0
LINE
  5
23DF
  8
虚线
 10
488.47457774228582
 20
176.39146811785591
 30
0.0
 11
488.47457774228582
 21
176.45052323597889
 31
0.0
  0
LINE
  5
23E0
  8
虚线
 10
484.52124743507642
 20
176.48316810239169
 30
0.0
 11
484.45210449846388
 21
176.62145397561659
 31
0.0
  0
LINE
  5
23E1
  8
虚线
 10
484.9312706556874
 20
176.39146811785591
 30
0.0
 11
484.9312706556874
 21
176.45052323597889
 31
0.0
  0
LINE
  5
23E2
  8
虚线
 10
488.47457774228582
 20
176.45052323597889
 30
0.0
 11
488.83178045947619
 21
176.45052323597889
 31
0.0
  0
LINE
  5
23E3
  8
虚线
 10
484.9312706556874
 20
176.45052323597889
 30
0.0
 11
488.47457774228582
 21
176.45052323597889
 31
0.0
  0
LINE
  5
23E4
  8
0
 10
484.4684269316848
 20
176.4567578507104
 30
0.0
 11
484.39928399507238
 21
176.59504372390629
 31
0.0
  0
ARC
  5
23E5
  8
0
 10
484.34646349165172
 20
176.56863347219601
 30
0.0
 40
0.05905511811
 50
26.565051063724699
 51
90.0
  0
LINE
  5
23E6
  8
0
 10
471.47390469408748
 20
176.82453898401411
 30
0.0
 11
484.34646349168082
 21
176.627688590319
 31
0.0
  0
ARC
  5
23E7
  8
0
 10
484.57406793846798
 20
176.50957835407289
 30
0.0
 40
0.11811023622
 50
206.56505163197971
 51
269.99999995831178
  0
LINE
  5
23E8
  8
0
 10
484.57406793846798
 20
176.39146811785591
 30
0.0
 11
484.9312706556874
 21
176.39146811785591
 31
0.0
  0
LINE
  5
23E9
  8
0
  6
CONTINUOUS
 10
484.9312706556874
 20
176.39146811785591
 30
0.0
 11
488.47457774228582
 21
176.39146811785591
 31
0.0
  0
LINE
  5
23EA
  8
0
 10
488.47457774228582
 20
176.39146811785591
 30
0.0
 11
488.83178045947619
 21
176.39146811785591
 31
0.0
  0
ARC
  5
23EB
  8
0
 10
488.83178045947619
 20
176.50957835407289
 30
0.0
 40
0.11811023622
 50
270.00000004168822
 51
333.43494778112239
  0
LINE
  5
23EC
  8
0
 10
488.93742146628841
 20
176.4567578507104
 30
0.0
 11
489.00656440290078
 21
176.59504372390629
 31
0.0
  0
ARC
  5
23ED
  8
0
 10
489.05938490629239
 20
176.56863347219601
 30
0.0
 40
0.05905511811
 50
90.0
 51
153.4349486715374
  0
LINE
  5
23EE
  8
0
 10
501.8728885857625
 20
182.7339878028998
 30
0.0
 11
471.53295981221072
 21
182.7339878028998
 31
0.0
  0
LINE
  5
23EF
  8
0
 10
474.2235587934037
 20
182.67493268477671
 30
0.0
 11
474.2235587934037
 21
176.78249058473571
 31
0.0
  0
LINE
  5
23F0
  8
0
 10
501.93194370385652
 20
182.67493268477671
 30
0.0
 11
471.47390469408748
 21
182.67493268477671
 31
0.0
  0
LINE
  5
23F1
  8
0
 10
470.2029241990594
 20
182.7339878028998
 30
0.0
 11
471.53295981221072
 21
182.7339878028998
 31
0.0
  0
LINE
  5
23F2
  8
虚线
 10
471.53295981221072
 20
182.7339878028998
 30
0.0
 11
471.5329598121815
 21
176.88359410213721
 31
0.0
  0
LINE
  5
23F3
  8
0
 10
470.2029241990594
 20
182.67493268477671
 30
0.0
 11
471.47390469408748
 21
182.67493268477671
 31
0.0
  0
LINE
  5
23F4
  8
0
 10
471.47390469408748
 20
182.67493268477671
 30
0.0
 11
471.47390469408748
 21
176.82453898401411
 31
0.0
  0
LINE
  5
23F5
  8
0
 10
470.2029241990594
 20
182.7339878028998
 30
0.0
 11
470.2029241990594
 21
182.67493268477671
 31
0.0
  0
ARC
  5
23F6
  8
0
 10
486.70292419897208
 20
122.9042614019685
 30
0.0
 40
39.99999999984
 50
65.638022063275642
 51
114.3619779367243
  0
LINE
  5
23F7
  8
0
 10
499.69667419911173
 20
151.59942581897241
 30
0.0
 11
503.20292419920492
 21
159.34256542369019
 31
0.0
  0
LINE
  5
23F8
  8
0
 10
499.19186894203352
 20
152.90886536866071
 30
0.0
 11
501.87417726760663
 21
158.8324269593262
 31
0.0
  0
LINE
  5
23F9
  8
0
 10
473.70917419886138
 20
151.59942581897241
 30
0.0
 11
470.2029241987683
 21
159.34256542371929
 31
0.0
  0
LINE
  5
23FA
  8
0
 10
474.21397945593969
 20
152.90886536866071
 30
0.0
 11
471.53167113036659
 21
158.8324269593262
 31
0.0
  0
ARC
  5
23FB
  8
0
 10
486.70292419897208
 20
122.9042614019685
 30
0.0
 40
38.999999999844
 50
67.107305654554807
 51
112.89269434544519
  0
ARC
  5
23FC
  8
0
 10
486.70292419897208
 20
122.9042614019685
 30
0.0
 40
32.499999999869999
 50
67.401247411902702
 51
112.5987525880973
  0
ARC
  5
23FD
  8
0
 10
486.70292419897208
 20
122.9042614019685
 30
0.0
 40
31.49999999987401
 50
65.638022063275642
 51
114.3619779367243
  0
LINE
  5
23FE
  8
0
 10
503.20292419891382
 20
182.7339878028998
 30
0.0
 11
501.8728885857625
 21
182.7339878028998
 31
0.0
  0
LINE
  5
23FF
  8
0
 10
503.20292419891382
 20
182.67493268477671
 30
0.0
 11
501.93194370385652
 21
182.67493268477671
 31
0.0
  0
LINE
  5
2400
  8
0
 10
503.20292419891382
 20
182.7339878028998
 30
0.0
 11
503.20292419891382
 21
182.67493268477671
 31
0.0
  0
LINE
  5
2401
  8
虚线
 10
501.8728885857625
 20
176.88359410213721
 30
0.0
 11
489.05938490626329
 21
176.68674370841299
 31
0.0
  0
LINE
  5
2402
  8
0
 10
501.93194370388562
 20
176.82453898401411
 30
0.0
 11
489.05938490626329
 21
176.627688590319
 31
0.0
  0
LINE
  5
2403
  8
0
 10
499.18228960454041
 20
182.67493268477671
 30
0.0
 11
499.18228960456958
 21
176.78249058473571
 31
0.0
  0
LINE
  5
2404
  8
虚线
 10
501.8728885857625
 20
182.7339878028998
 30
0.0
 11
501.8728885857625
 21
176.88359410213721
 31
0.0
  0
LINE
  5
2405
  8
0
 10
501.93194370385652
 20
182.67493268477671
 30
0.0
 11
501.93194370388562
 21
176.82453898401411
 31
0.0
  0
LINE
  5
2406
  8
中心线
  6
CONTINUOUS
 62
     1
 10
498.76293042157238
 20
126.4682059621246
 30
0.0
 11
501.5100613283347
 21
132.53492057829689
 31
0.0
  0
ARC
  5
2407
  8
中心线
  6
CONTINUOUS
 62
     1
 10
486.233789669065
 20
96.565719079399173
 30
0.0
 40
32.42125984239
 50
67.266318045978792
 51
112.73368195402119
  0
ARC
  5
2408
  8
中心线
  6
CONTINUOUS
 62
     1
 10
486.233789669065
 20
96.565719079399173
 30
0.0
 40
39.078740157323999
 50
66.988863740423596
 51
113.0111362595764
  0
LINE
  5
2409
  8
中心线
  6
CONTINUOUS
 62
     1
 10
473.70464891652858
 20
126.4682059621246
 30
0.0
 11
470.95751800976632
 21
132.53492057829689
 31
0.0
  0
INSERT
  5
2412
  8
标注
  2
*U32
 10
142.36134464344391
 20
-3.3621441424506311
 30
0.0
  0
INSERT
  5
2413
  8
标注
  2
*U33
 10
143.00584806041411
 20
-0.5457804506256707
 30
0.0
  0
DIMENSION
  5
2414
  8
标注
  2
*D58
 10
498.7629304116407
 20
124.5635186117469
 30
0.0
 11
486.23378966408472
 21
124.5635186117469
 31
0.0
 70
   128
 13
473.70464891652858
 23
126.4682059621246
 33
0.0
 14
498.7629304116407
 24
126.468205966287
 34
0.0
1001
ACAD
1000
DSTYLE
1002
{
1070
   287
1070
     3
1070
     3
1000
"
1070
   274
1070
     2
1070
   279
1070
     0
1070
   284
1070
     0
1070
   285
1070
     0
1070
   286
1070
     0
1002
}
  0
DIMENSION
  5
242C
  8
标注
  2
*D59
 10
501.51006133130358
 20
137.63307502214559
 30
0.0
 11
486.233789669065
 21
137.63307502214559
 31
0.0
 70
     0
 13
470.95751800682649
 23
132.5349205771407
 33
0.0
 14
501.51006133130358
 24
132.5349205771407
 34
0.0
  0
DIMENSION
  5
243A
  8
标注
  2
*D60
 10
503.21497502507327
 20
131.76290122172449
 30
0.0
 11
501.84140957020782
 21
128.72954391421641
 31
0.0
 70
     1
 13
498.76293042157238
 23
126.4682059621246
 33
0.0
 14
501.51006133130358
 24
132.5349205771407
 34
0.0
  0
DIMENSION
  5
2452
  8
标注
  2
*D61
 10
499.19186894179637
 20
150.8427992596128
 30
0.0
 11
486.7029241974974
 21
150.8427992596128
 31
0.0
 70
     0
 13
474.21397945319842
 23
152.90886536750281
 33
0.0
 14
499.19186894179637
 24
152.90886536883531
 34
0.0
  0
DIMENSION
  5
2460
  8
标注
  2
*D62
 10
499.69667419728961
 20
149.09502872737079
 30
0.0
 11
486.70292419807549
 21
149.09502872737079
 31
0.0
 70
     0
 13
473.70917419886138
 23
151.59942581897241
 33
0.0
 14
499.69667419728961
 24
151.59942581992021
 34
0.0
  0
DIMENSION
  5
246E
  8
标注
  2
*D63
 10
471.53167113036659
 20
164.46637918852491
 30
0.0
 11
486.67369164410138
 21
164.46637918852491
 31
0.0
 70
     0
 13
501.81571215783612
 23
158.85705879102079
 33
0.0
 14
471.53167113036659
 24
158.8324269593262
 34
0.0
  0
DIMENSION
  5
247C
  8
标注
  2
*D64
 10
503.20292419683562
 20
166.04472178692919
 30
0.0
 11
486.70292419780191
 21
166.04472178692919
 31
0.0
 70
     0
 13
470.2029241987683
 23
159.34256542371929
 33
0.0
 14
503.20292419683562
 24
159.3425654247643
 34
0.0
  0
DIMENSION
  5
248A
  8
标注
  2
*D65
 10
503.97588339066431
 20
157.88073198009829
 30
0.0
 11
502.63472922923393
 21
154.9189511841866
 31
0.0
 70
     1
 13
499.19186894474569
 23
152.90886536750281
 33
0.0
 14
501.87417726760663
 24
158.8324269593262
 34
0.0
  0
DIMENSION
  5
2498
  8
标注
  2
*D66
 10
505.64599140406091
 20
158.2362952519567
 30
0.0
 11
503.89286640519902
 21
154.3647254490607
 31
0.0
 70
     1
 13
499.69667419911173
 23
151.59942581897241
 33
0.0
 14
503.20292419683562
 24
159.3425654247643
 34
0.0
  0
DIMENSION
  5
24A6
  8
标注
  2
*D67
 10
487.50336303486802
 20
182.7339878028998
 30
0.0
 11
487.5033630348679
 21
179.71036575565651
 31
0.0
 70
     1
 13
486.37997145904728
 23
176.68674370841299
 33
0.0
 14
486.37997145904728
 24
182.7339878028998
 34
0.0
  0
ENDSEC
  0
EOF
